the 100 ettv arrow español Scoob! 2020 hanna Birds of Prey (and the Fantabulous Emancipation of One Harley Quinn) 2020 evo Condor S02E06 the protector Hanna s02e07 Eurovision Song Contest The Story of Fire Saga 2020 hindi Hanna s02e02 marvel week snowpiercer Greyhound 2020 Yellowstone S03E04 dark The Outpost 2020 The Real Housewives of Beverly Hills S10E09 Hamilton 2020 aew rq.mp4 Blindspot Ettv You Should Have Left 2020 ddr Artemis Fowl 2020 Dirty John S02E07 Desperados 2020 Perry Mason s01e03 stargirl warrior nun Hanna s02e08 Stargirl S01E08 Yellowstone S03E03 Hanna s02e03 dc week etmovies yts warrior nun s01e01 condor big bang theory español The 100 S07E07 Marvels Agents of S.H.I.E.L.D. S07E07 agents The 100 S07E08 Trolls World Tour 2020 agents of  Irresistible 2020 Snowpiercer s01e08 doom patrol Big Dogs S01E01 Hanna s02e05 wwe Force of Nature 2020 Hanna s02e04 billions ethd etrg ita The Blacklist S07E15 bone yellowstone The Challenge s35e15 Hanna s02e06 Seal Team Deadliest Catch S16E13 xxx The King of Staten Island 2020 Hanna s02e01 
Warning! Use a VPN When Downloading Torrents!
Your IP Address is 34.239.167.74. Location United States
Your Internet Provider can see when you download torrents! Hide your IP Address with a VPN
ETTV warns: You should use VPN to hide your torrenting. HIDE ME NOW
ETTV Recommended TV Shows
The.100.S07E08.XviD-AFG[ettv] torrent
Marvels.Agents.of.S.H.I.E.L.D.S07E07.HDTV.x264-SVA[ettv] torrent
Doom.Patrol.S02E05.1080p.HEVC.x265.Eng.DD.5.1.MeGusta.ETRG torrent
Blindspot.S05E09.720p.HDTV.x264-AVS[ettv] torrent
Blindspot.S05E10.720p.HDTV.x264-AVS[ettv] torrent
WWE Main Event 2020 07 08 720p WEB h264-TBS [TJET] torrent

ETTV Recommended SD
Volition.2019.HDRip.XviD.AC3-EVO[EtMovies] torrent
The.Beach.House.2020.HDRip.XviD.AC3-EVO[EtMovies] torrent
Relic.2020.HDRip.XviD.AC3-EVO[EtMovies] torrent
The.Runners.2020.HDRip.XviD.AC3-EVO[EtMovies] torrent

ETTV Recommended HD
Volition.2019.1080p.WEB-DL.H264.AC3-EVO[EtHD] torrent
The.Beach.House.2020.1080p.WEBRip.X264.AC3-EVO[EtHD] torrent
Between.Shadow.And.Soul.2020.1080p.WEBRip.X264.DD.5.1-EVO[EtHD] torrent
Relic.2020.1080p.WEB-DL.H264.AC3-EVO[EtHD] torrent

ETTV Recommended UHD
Escape.From.L.A.1996.4K.MULTi.2160p.HDR.WEBRip.TrueHD.5.1.HEVC-DDR.mkv torrent
INXS - Live Baby Live 1991 (2020).UHD.Bluray.2160p.HDR.Atmos.7.1.HEVC-DDR.mkv torrent
Tropic.Thunder.2008.MULTi.TC.2160p.HDR.WEBRip.DTS-HDMA.5.1.HEVC-DDR.mkv torrent
Playing.with.Fire.2019.4K.MULTI.2160p.HDR.WEBRip.DTS-HDMA.5.1.HEVC-DDR.mkv torrent
The.Last.Days.of.American.Crime.2020.4K.MULTI.2160p.HDR.WEBRip.DDP.5.1.HEVC-DDR.mkv torrent
Onward - Oltre la magia (2020) [BluRay Rip 2160p HEVC 10bit-HDR ITA-ENG DD+AC3-SUBS] [M@HD] torrent

ETTV Recommended Cam
The Hunt 2020 HDCAM x264 AC3-ETRG torrent
The Burnt Orange Heresy 2020 720p HDCAM-C1NEM4 torrent

ETTV Recommended Foreign
Mumbai Pune Mumbai (2010) Marathi 720p WEBRip x264 AAC ESubs - 950MB - MovCr torrent
The.Protector.S04.1080p.NF.WEB-DL.HIN-ENG.DDP5.1.x264-Telly torrent
Promare (2019) BluRay FullHD 1080p.H264 Ita Jpn AC3 5.1 Sub Ita Eng MIRCrew torrent
Shadow.Animals.[Skuggdjur].2017.1080p.WEBRip.x264.AAC.HORiZON-ArtSubs torrent
Gauguin.a.Tahiti.Il.Paradiso Perduto.2019 HDTV 1080p Ita x265-NAHOM torrent
Centurion (2010) AC3 5.1 ITA.ENG 1080p H265 sub ita.eng Sp33dy94 MIRCrew torrent

ETTV Recommended Misc
100 Tracks All Out 60s Playlist Spotify Mp3~(2020) [320]  kbps Beats⭐ torrent
Bollywood Retro Hits Of 90's [FLAC] {1337PRO} torrent
Disturbed - The Sickness (20th Anniversary Edition) (2020) Mp3 320kbps [PMEDIA] ⭐️ torrent
The Streets - None Of Us Are Getting Out Of This Life Alive (2020) [320 KBPS] torrent


Download Torrent "Anthony Bourdain Parts Unknown S12E03 (1080p AMZN WEB-DL x265 HEVC 10bit AA..."

IMDB Details
Description:

N/A

Genre:

N/A

Download Torrent (Magnet)
Download Torrent (File)

Seeds: 130
Leechers: 0

Uploaded by:
UTR


Category:
TV > HEVC/x265 (Super High Quality, Small size, high CPU usage)


Details
Title:Anthony Bourdain Parts Unknown S12E03 (1080p AMZN WEB-DL x265 HEVC 10bit AA...
Description:





Media Information
General
Format : Matroska
Format version : Version 4 / Version 2
File size : 390 MiB
Duration : 42 min 28 s
Overall bit rate : 1 285 kb/s
Encoded date : UTC 2018-10-09 05:10:19
Writing application : mkvmerge v24.0.0 ('Beyond The Pale') 64-bit
Writing library : libebml v1.3.6 + libmatroska v1.4.9
Writing frontend : StaxRip v1.8.2.0

Video
ID : 1
Format : HEVC
Format/Info : High Efficiency Video Coding
Format profile : Main [email protected]@Main
Codec ID : V_MPEGH/ISO/HEVC
Duration : 42 min 28 s
Bit rate : 1 199 kb/s
Width : 1 920 pixels
Height : 1 080 pixels
Display aspect ratio : 16:9
Frame rate mode : Constant
Frame rate : 23.976 (24000/1001) FPS
Color space : YUV
Chroma subsampling : 4:2:0
Bit depth : 10 bits
Bits/(Pixel*Frame) : 0.024
Stream size : 364 MiB (93%)
Writing library : x265 2.8+19-bcdc610cf5f0:[Windows][MSVC 1914][64 bit] 10bit
Encoding settings : cpuid=1111039 / frame-threads=3 / numa-pools=8 / wpp / no-pmode / no-pme / no-psnr / ssim / log-level=2 / input-csp=1 / input-res=1920x1080 / interlace=0 / total-frames=61109 / level-idc=0 / high-tier=1 / uhd-bd=0 / ref=4 / no-allow-non-conformance / no-repeat-headers / annexb / no-aud / no-hrd / info / hash=0 / no-temporal-layers / open-gop / min-keyint=23 / keyint=250 / gop-lookahead=0 / bframes=4 / b-adapt=2 / b-pyramid / bframe-bias=0 / rc-lookahead=80 / lookahead-slices=4 / scenecut=40 / radl=0 / no-intra-refresh / ctu=64 / min-cu-size=8 / no-rect / no-amp / max-tu-size=32 / tu-inter-depth=1 / tu-intra-depth=1 / limit-tu=0 / rdoq-level=2 / dynamic-rd=0.00 / ssim-rd / signhide / no-tskip / nr-intra=0 / nr-inter=0 / no-constrained-intra / strong-intra-smoothing / max-merge=3 / limit-refs=3 / limit-modes / me=3 / subme=3 / merange=57 / temporal-mvp / weightp / no-weightb / no-analyze-src-pics / deblock=0:0 / sao / no-sao-non-deblock / rd=4 / no-early-skip / rskip / no-fast-intra / no-tskip-fast / no-cu-lossless / no-b-intra / no-splitrd-skip / rdpenalty=0 / psy-rd=0.00 / psy-rdoq=1.50 / no-rd-refine / no-lossless / cbqpoffs=0 / crqpoffs=0 / rc=abr / bitrate=1200 / qcomp=0.60 / qpstep=4 / stats-write=0 / stats-read=2 / cplxblur=20.0 / qblur=0.5 / vbv-maxrate=3600 / vbv-bufsize=6400 / vbv-init=0.9 / ipratio=1.40 / pbratio=1.30 / aq-mode=3 / aq-strength=0.80 / cutree / zone-count=0 / no-strict-cbr / qg-size=32 / no-rc-grain / qpmax=69 / qpmin=0 / no-const-vbv / sar=0 / overscan=0 / videoformat=5 / range=0 / colorprim=2 / transfer=2 / colormatrix=2 / chromaloc=0 / display-window=0 / max-cll=0,0 / min-luma=0 / max-luma=1023 / log2-max-poc-lsb=8 / vui-timing-info / vui-hrd-info / slices=1 / no-opt-qp-pps / no-opt-ref-list-length-pps / multi-pass-opt-rps / scenecut-bias=0.05 / no-opt-cu-delta-qp / no-aq-motion / no-hdr / no-hdr-opt / no-dhdr10-opt / no-idr-recovery-sei / analysis-reuse-level=10 / scale-factor=0 / refine-intra=0 / refine-inter=0 / refine-mv=0 / limit-sao / ctu-info=0 / no-lowpass-dct / refine-mv-type=0 / copy-pic=1 / max-ausize-factor=1.0 / no-dynamic-refine / no-single-sei
Default : Yes
Forced : No

Audio
ID : 2
Format : AAC
Format/Info : Advanced Audio Codec
Format profile : LC
Codec ID : A_AAC
Duration : 42 min 28 s
Bit rate : 82.9 kb/s
Channel(s) : 2 channels
Channel positions : Front: L R
Sampling rate : 48.0 kHz
Frame rate : 46.875 FPS (1024 spf)
Compression mode : Lossy
Delay relative to video : 9 ms
Stream size : 25.2 MiB (6%)
Title : VFF
Language : English
Default : No
Forced : No

Subtitle
ID : 3
Format : UTF-8
Codec ID : S_TEXT/UTF8
Codec ID/Info : UTF-8 Plain Text
Duration : 41 min 41 s
Bit rate : 79 b/s
Count of elements : 892
Stream size : 24.2 KiB (0%)
Language : English
Default : No
Forced : No

Source Information
Release: Anthony.Bourdain.Parts.Unknown.S12E03.Indonesia.1080p.AMZN.WEB-DL.DD+2.0.H.264-AJP69 (3.76 GBs)


Note From UTR
We have no issue with individuals posting or re-uploading our torrents on a platform we aren't on. However, if this is something you'd like to do, please do so in a 'as-is' format. We ask that you do not create a new torrent, include all descriptions you see above including the UTR logo, tags, notes and screenshots. If you'd like to become a permanent poster on a website we don't post to, feel free to get in contact with a UniTeam member.

If possible please donate: BTC 1QA5fum5AyXvWzdVCkQzUNvw3Ef15fHRaR


Category:TV > HEVC/x265
Lang:English  English
Total Size:390 MB
Info Hash:ba2ea16c9f7a717edfe8ef6cf62b38af5bd83bb5
Added By:UTR
Date Added:10-10-2018 14:18:06

Files

File List: 
 File Size
Anthony Bourdain Parts Unknown S12E03 Indonesia (1080p x265 10bit S75 Joy).mkv390 MB



Comments

There are currently no comments. Be the first one to write something !