The Outpost 2020 Yellowstone S03E04 Hightown  Palm Springs 2020 Scoob! 2020 rq.mp4 UFC Perry mason P-Valley S01E01 The 100 S07E08 njpw Relic 2020 dark  Invasion 2020 DC week Doom Patrol s02e05 You Should Have Left 2020 stargirl yts 0 Perry Mason S01E04 snowpiercer THE 100 formula  doom patrol Hightown s01e08 Eurovision Song Contest The Story of Fire Saga 2020 The Gentlemen 2019 Hanna s02e01 indycar Hamilton 2020 Trolls World Tour 2020 Blindspot S05E09 The Chi S03E04 ethd Blindspot Formula 1 2160p Snowpiercer S01E10 Condor Snowpiercer S01E09 Yellowstone S03E03 ettv The Old Guard 2020 Archive 2020 90 Day Fiance Happily Ever After S05E05 Irresistible 2020 Bad Boys for Life 2020 hindi etrg etmovies evo Greyhound 2020 Blindspot S05E10 Marvels Agents of S.H.I.E.L.D. S07E07 Artemis Fowl 2020 Greyhound xxx The Old Guard Stargirl S01E09 ddr Yellowstone Birds of Prey (and the Fantabulous Emancipation of One Harley Quinn) 2020 The King of Staten Island 2020 f1 wwe formula1 ufc 251 Force of Nature 2020 
Warning! Use a VPN When Downloading Torrents!
Your IP Address is 34.204.187.106. Location United States
Your Internet Provider can see when you download torrents! Hide your IP Address with a VPN
ETTV warns: You should use VPN to hide your torrenting. HIDE ME NOW
ETTV Recommended TV Shows
Snowpiercer.S01E09.720p.WEB.H264-METCON[ettv] torrent
Snowpiercer.S01E10.720p.WEB.H264-METCON[ettv] torrent
Yellowstone.2018.S03E04.1080p.HEVC.x265.MeGusta.ETRG torrent
Stargirl.S01E09.480p.x264.mSD.ETRG torrent

ETTV Recommended SD
Latte.And.The.Magic.Waterstone.2020.HDRip.XviD.AC3-EVO[EtMovies] torrent
Arthur.And.Merlin.Knights.Of.Camelot.2020.HDRip.XviD.AC3.EVO.ETRG torrent
Kat.And.The.Band.2020.HDRip.XviD.AC3.EVO.ETRG torrent
Masters.Of.Love.2020.HDRip.XviD.AC3.EVO.ETRG torrent

ETTV Recommended HD
Spectre 2015 BluRay 1080p AC3 x264-3Li torrent
Masters.Of.Love.2020.1080p.WEB-DL.H264.AC3.EVO.ETRG torrent
Kat.And.The.Band.2020.1080p.WEB-DL.H264.AC3.EVO.ETRG torrent
Arthur.And.Merlin.Knights.Of.Camelot.2020.1080p.WEB-DL.H264.AC3.EVO.ETRG torrent

ETTV Recommended UHD
Geostorm.2017.MULTI.2160p.HDR.WebRip.DTS-HDMA.5.1.HEVC-DDR.mkv torrent
Get.Hard.2015.MULTI.2160p.HDR.WebRip.DTS-HDMA.5.1.HEVC-DDR.mkv torrent
Heat.1995.MULTI.2160p.HDR.WebRip.DDP.5.1.HEVC-DDR.mkv torrent
The Laundromat.2019.MULTI.2160p.HDR.WebRip.DDP.5.1.HEVC-DDR.mkv torrent
Uncut.Gems.2020.MULTI.2160p.HDR.WebRip.DDP.5.1.HEVC-DDR.mkv torrent
American.Son.2019.MULTI.2160p.HDR.WebRip.DDP.5.1.HEVC-DDR.mkv torrent

ETTV Recommended Cam
The Hunt 2020 HDCAM x264 AC3-ETRG torrent
The Burnt Orange Heresy 2020 720p HDCAM-C1NEM4 torrent

ETTV Recommended Foreign
Girlfriend (2018) Bengali Hotstar 1080P WEB-DL x264 AAC - CineVood torrent
De Dana Dan (2009) Hindi (2160p Upscaled WEBRip x265 HEVC 10bit AAC 2.0 ESub Chapters) - [Musafirboy] torrent
Kazhugu 2 (2019) 720p UNCUT HDRip [Hindi + Tamil] x264 AAC - 850MB - MovCr torrent
Thelma & Louise (1991).720p.H264.ita.eng.Ac3.sub.ita.eng-MIRCrew torrent
Rum 213 (2017) 720p BluRay x264 Eng Subs [Dual Audio] [Hindi DD 2.0 - Swedish 2.0] Exclusive By -=!Dr.STAR!=- torrent
Cinderela Pop 2019 1080p NF WEB-DL DD+5.1.H264-BdC[EtHD] torrent

ETTV Recommended Misc
Donna Missal ~Lighter  Pop Album Mp3~(2020) [320]  kbps Beats⭐ torrent
VA - 60s, 70s, 80s, 90s Oldies (2020) Mp3 320kbps [PMEDIA] ⭐️ torrent
VA - 538 Hitzone 93 (2020) Mp3 (320kbps) [Hunter] torrent
Headdock - Hidden Sounds & Vibrations 13-07-2020 [3CD] {1337x} torrent


Download Torrent "SEAL Team S02E01 (1080p x265 HEVC 10bit S84 AAC 5.1 Joy) [UTR]"

IMDB Details
Description:

N/A

Genre:

N/A

Download Torrent (Magnet)
Download Torrent (File)

Seeds: 194
Leechers: 30

Uploaded by:
UTR


Category:
TV > HEVC/x265 (Super High Quality, Small size, high CPU usage)


Details
Title:SEAL Team S02E01 (1080p x265 HEVC 10bit S84 AAC 5.1 Joy) [UTR]
Description:





Media Information
General
Format : Matroska
Format version : Version 4 / Version 2
File size : 410 MiB
Duration : 40 min 22 s
Overall bit rate : 1 420 kb/s
Encoded date : UTC 2018-10-09 10:51:52
Writing application : mkvmerge v24.0.0 ('Beyond The Pale') 64-bit
Writing library : libebml v1.3.6 + libmatroska v1.4.9
Writing frontend : StaxRip v1.8.2.0

Video
ID : 1
Format : HEVC
Format/Info : High Efficiency Video Coding
Format profile : Main [email protected]@Main
Codec ID : V_MPEGH/ISO/HEVC
Duration : 40 min 22 s
Bit rate : 1 196 kb/s
Width : 1 920 pixels
Height : 1 080 pixels
Display aspect ratio : 16:9
Frame rate mode : Constant
Frame rate : 24.000 FPS
Color space : YUV
Chroma subsampling : 4:2:0
Bit depth : 10 bits
Bits/(Pixel*Frame) : 0.024
Stream size : 345 MiB (84%)
Writing library : x265 2.8+19-bcdc610cf5f0:[Windows][MSVC 1914][64 bit] 10bit
Encoding settings : cpuid=1111039 / frame-threads=3 / numa-pools=8 / wpp / no-pmode / no-pme / no-psnr / ssim / log-level=2 / input-csp=1 / input-res=1920x1080 / interlace=0 / total-frames=58145 / level-idc=0 / high-tier=1 / uhd-bd=0 / ref=4 / no-allow-non-conformance / no-repeat-headers / annexb / no-aud / no-hrd / info / hash=0 / no-temporal-layers / open-gop / min-keyint=24 / keyint=250 / gop-lookahead=0 / bframes=4 / b-adapt=2 / b-pyramid / bframe-bias=0 / rc-lookahead=80 / lookahead-slices=4 / scenecut=40 / radl=0 / no-intra-refresh / ctu=64 / min-cu-size=8 / no-rect / no-amp / max-tu-size=32 / tu-inter-depth=1 / tu-intra-depth=1 / limit-tu=0 / rdoq-level=2 / dynamic-rd=0.00 / ssim-rd / signhide / no-tskip / nr-intra=0 / nr-inter=0 / no-constrained-intra / strong-intra-smoothing / max-merge=3 / limit-refs=3 / limit-modes / me=3 / subme=3 / merange=57 / temporal-mvp / weightp / no-weightb / no-analyze-src-pics / deblock=0:0 / sao / no-sao-non-deblock / rd=4 / no-early-skip / rskip / no-fast-intra / no-tskip-fast / no-cu-lossless / no-b-intra / no-splitrd-skip / rdpenalty=0 / psy-rd=0.00 / psy-rdoq=1.50 / no-rd-refine / no-lossless / cbqpoffs=0 / crqpoffs=0 / rc=abr / bitrate=1200 / qcomp=0.60 / qpstep=4 / stats-write=0 / stats-read=2 / cplxblur=20.0 / qblur=0.5 / vbv-maxrate=3600 / vbv-bufsize=6400 / vbv-init=0.9 / ipratio=1.40 / pbratio=1.30 / aq-mode=3 / aq-strength=0.80 / cutree / zone-count=0 / no-strict-cbr / qg-size=32 / no-rc-grain / qpmax=69 / qpmin=0 / no-const-vbv / sar=0 / overscan=0 / videoformat=5 / range=0 / colorprim=2 / transfer=2 / colormatrix=2 / chromaloc=0 / display-window=0 / max-cll=0,0 / min-luma=0 / max-luma=1023 / log2-max-poc-lsb=8 / vui-timing-info / vui-hrd-info / slices=1 / no-opt-qp-pps / no-opt-ref-list-length-pps / multi-pass-opt-rps / scenecut-bias=0.05 / no-opt-cu-delta-qp / no-aq-motion / no-hdr / no-hdr-opt / no-dhdr10-opt / no-idr-recovery-sei / analysis-reuse-level=10 / scale-factor=0 / refine-intra=0 / refine-inter=0 / refine-mv=0 / limit-sao / ctu-info=0 / no-lowpass-dct / refine-mv-type=0 / copy-pic=1 / max-ausize-factor=1.0 / no-dynamic-refine / no-single-sei
Default : Yes
Forced : No

Audio
ID : 2
Format : AAC
Format/Info : Advanced Audio Codec
Format profile : HE-AAC / LC
Codec ID : A_AAC
Duration : 40 min 22 s
Bit rate : 223 kb/s
Channel(s) : 6 channels
Channel positions : Front: L C R, Side: L R, LFE
Sampling rate : 48.0 kHz / 24.0 kHz
Frame rate : 23.438 FPS (1024 spf)
Compression mode : Lossy
Delay relative to video : 31 ms
Stream size : 64.3 MiB (16%)
Language : English
Default : No
Forced : No

Subtitle #1
ID : 3
Format : UTF-8
Codec ID : S_TEXT/UTF8
Codec ID/Info : UTF-8 Plain Text
Duration : 39 min 46 s
Bit rate : 74 b/s
Count of elements : 696
Stream size : 21.8 KiB (0%)
Language : English
Default : No
Forced : No

Subtitle #2
ID : 4
Format : UTF-8
Codec ID : S_TEXT/UTF8
Codec ID/Info : UTF-8 Plain Text
Duration : 39 min 46 s
Bit rate : 76 b/s
Count of elements : 718
Stream size : 22.3 KiB (0%)
Language : English
Default : No
Forced : No

Source Information
Release: SEAL.Team.S02E01.Fracture.1080p.AMZN.WEB-DL.DDP5.1.H.264-NTb.mkv (2.96 GBs)


Note From UTR
We have no issue with individuals posting or re-uploading our torrents on a platform we aren't on. However, if this is something you'd like to do, please do so in a 'as-is' format. We ask that you do not create a new torrent, include all descriptions you see above including the UTR logo, tags, notes and screenshots. If you'd like to become a permanent poster on a website we don't post to, feel free to get in contact with a UniTeam member.

If possible please donate: BTC 1QA5fum5AyXvWzdVCkQzUNvw3Ef15fHRaR


Category:TV > HEVC/x265
Lang:English  English
Total Size:410 MB
Info Hash:5479b0acbfd6b3a6ff45301a8488a75f341f665b
Added By:UTR
Date Added:10-10-2018 14:27:57

Files

File List: 
 File Size
SEAL Team S02E01 Fracture (1080p x265 10bit S84 Joy).mkv410 MB



Comments

There are currently no comments. Be the first one to write something !