Yellowstone s03e04 ettv Invasion 2020 evo Yellowstone S03E01 doom patrol yts blindspot hindi 90 Day Fiance Happily Ever After S05E05 Marvels Agents of S.H.I.E.L.D. S07E07 The Chi S03E04 indian Stargirl s01e09 Arrow S08E07 Blindspot S05E10 2160p  Doom Patrol s02e05 Snowpiercer S01E08 Birds of Prey (and the Fantabulous Emancipation of One Harley Quinn) 2020 stargirl hightown  Blindspot S05E09 Snowpiercer S01E10 Perry Mason s01e03 ddr Ill Be Gone in the Dark S01E03 Trolls World Tour 2020 The 100 S07E08 Palm Springs 2020 Below Deck Mediterranean S05E07 Hightown S01E08 Force of Nature 2020 ufc NOS4A2 S02E04 Perry Mason S01E01 Yellowstone s03e03 condor etrg rq.mp4 Big Dogs S01E01 90 Day Fiance The Other Way S02E07 Wwe XXX Naked and Afraid XL S06E08 Perry Mason s01e04 Greyhound Hamilton 2020 the titan games s02e08 The Fk-It List 2020 the 100 The Outpost 2020 masterchef australia american dad MasterChef Australia S12E58 The Old Guard 2020 ethd Archive 2020 Snowpiercer S01E09 Scoob! 2020 snowpiercer Greyhound 2020 Relic 2020 etmovies yellowstone ITA  Dark P-Valley S01E01 Last Week Tonight the old guard perry mason 
Warning! Use a VPN When Downloading Torrents!
Your IP Address is 34.229.119.29. Location United States
Your Internet Provider can see when you download torrents! Hide your IP Address with a VPN
ETTV warns: You should use VPN to hide your torrenting. HIDE ME NOW
ETTV Recommended TV Shows
Black Monday - Season 2 - Mp4 x264 AC3 1080p torrent
Holby.City.S22E21.720p.HDTV.x264-ORGANiC[ettv] torrent
Greenleaf.S05E04.720p.WEBRip.x264-OATH[ettv] torrent
AEW DARK 14th July 2020 720p WEBRip h264-TJ [TJET] torrent
Dirty.John.S02E08.720p.WEB.H264-BTX[ettv] torrent
Condor.S02E07.WEB.x264.PIXELMASH.ETRG torrent

ETTV Recommended SD
Rising.Free.2019.HDRip.XviD.AC3-EVO[EtMovies] torrent
DIVOS.2020.HDRip.XviD.AC3-EVO[EtMovies] torrent
Dale.Archdale.2020.HDRip.XviD.AC3-EVO torrent
Ghosts.Of.War.2020.REPACK.HDRip.XviD.AC3-EVO[EtMovies] torrent

ETTV Recommended HD
Coven.2020.1080p.WEB-DL.H264.AC3-EVO[EtHD] torrent
Rising.Free.2019.1080p.WEB-DL.H264.AC3-EVO[EtHD] torrent
DIVOS.2020.1080p.WEB-DL.H264.AC3-EVO[EtHD] torrent
Ghosts.Of.War.2020.REPACK.1080p.WEBRip.X264.AC3-EVO[EtHD] torrent

ETTV Recommended UHD
Geostorm.2017.MULTI.2160p.HDR.WebRip.DTS-HDMA.5.1.HEVC-DDR.mkv torrent
Get.Hard.2015.MULTI.2160p.HDR.WebRip.DTS-HDMA.5.1.HEVC-DDR.mkv torrent
Heat.1995.MULTI.2160p.HDR.WebRip.DDP.5.1.HEVC-DDR.mkv torrent
The Laundromat.2019.MULTI.2160p.HDR.WebRip.DDP.5.1.HEVC-DDR.mkv torrent
Uncut.Gems.2020.MULTI.2160p.HDR.WebRip.DDP.5.1.HEVC-DDR.mkv torrent
American.Son.2019.MULTI.2160p.HDR.WebRip.DDP.5.1.HEVC-DDR.mkv torrent

ETTV Recommended Cam
The Hunt 2020 HDCAM x264 AC3-ETRG torrent
The Burnt Orange Heresy 2020 720p HDCAM-C1NEM4 torrent

ETTV Recommended Foreign
Snowpiercer.S01.EP09-10.1080p.NF.WEB-DL.HIN-ENG.DDP5.1.Atmos.x264-Telly torrent
Master Z: The Ip Man Legacy (2018)-alE13[BRremux 1080p x264 by alE13 AC3/DTS-Atmos][Lektor PL & Sub Eng/Chi][Chi] torrent
Hit.And.Run.2019.720p.WEB-DL.x264-Mkvking torrent
Romeo Juliet 2019 Hindi Dubbed 1080p Web-DL x264 AAC ESubs [TMB] torrent
Little.Singham.Legend.of.Dugabakka.2020.1080p.NF.WEB-DL.DDP2.0.x264-Telly torrent
The Hard Way (2019) 1080p.H264 Ita Eng AC3 5.1 Sub Ita NUEng MIRCrew torrent

ETTV Recommended Misc
Dil Bechara (Original Soundtrack) (2020) Hindi [FLAC] {1337PRO} torrent
The Rolling Stones - Black And Blue (Remastered) (2020) [320 KBPS] torrent
[indie-folk, indie-pop] (2020) Mr Ben & the Bens - Life Drawing [FLAC] [DarkAngie] torrent
Dread Zeppelin - The Song Remains (Compilation)2020 ak torrent
100 Tracks Dance Pop Hits Playlist Spotify  Mp3  [320]  kbps Beats⭐ torrent
VA - NOW Thats What I Call Music 6 (2020) Mp3 320kbps [PMEDIA] ⭐️ torrent


Download Torrent "The Last Ship S05E04 (1080p AMZN WEB-DL x265 HEVC 10bit AAC 5.1 Joy) [UTR]"

IMDB Details
Description:

N/A

Genre:

N/A

Download Torrent (Magnet)
Download Torrent (File)

Seeds: 178
Leechers: 24

Uploaded by:
UTR


Category:
TV > HEVC/x265 (Super High Quality, Small size, high CPU usage)


Details
Title:The Last Ship S05E04 (1080p AMZN WEB-DL x265 HEVC 10bit AAC 5.1 Joy) [UTR]
Description:





Media Information
General
Format : Matroska
Format version : Version 4 / Version 2
File size : 427 MiB
Duration : 41 min 58 s
Overall bit rate : 1 423 kb/s
Encoded date : UTC 2018-10-09 01:36:57
Writing application : mkvmerge v24.0.0 ('Beyond The Pale') 64-bit
Writing library : libebml v1.3.6 + libmatroska v1.4.9
Writing frontend : StaxRip v1.8.2.0

Video
ID : 1
Format : HEVC
Format/Info : High Efficiency Video Coding
Format profile : Main [email protected]@Main
Codec ID : V_MPEGH/ISO/HEVC
Duration : 41 min 58 s
Bit rate : 1 198 kb/s
Width : 1 920 pixels
Height : 1 080 pixels
Display aspect ratio : 16:9
Frame rate mode : Constant
Frame rate : 23.976 (24000/1001) FPS
Color space : YUV
Chroma subsampling : 4:2:0
Bit depth : 10 bits
Bits/(Pixel*Frame) : 0.024
Stream size : 360 MiB (84%)
Writing library : x265 2.8+19-bcdc610cf5f0:[Windows][MSVC 1914][64 bit] 10bit
Encoding settings : cpuid=1111039 / frame-threads=3 / numa-pools=8 / wpp / no-pmode / no-pme / no-psnr / ssim / log-level=2 / input-csp=1 / input-res=1920x1080 / interlace=0 / total-frames=60392 / level-idc=0 / high-tier=1 / uhd-bd=0 / ref=4 / no-allow-non-conformance / no-repeat-headers / annexb / no-aud / no-hrd / info / hash=0 / no-temporal-layers / open-gop / min-keyint=23 / keyint=250 / gop-lookahead=0 / bframes=4 / b-adapt=2 / b-pyramid / bframe-bias=0 / rc-lookahead=80 / lookahead-slices=4 / scenecut=40 / radl=0 / no-intra-refresh / ctu=64 / min-cu-size=8 / no-rect / no-amp / max-tu-size=32 / tu-inter-depth=1 / tu-intra-depth=1 / limit-tu=0 / rdoq-level=2 / dynamic-rd=0.00 / ssim-rd / signhide / no-tskip / nr-intra=0 / nr-inter=0 / no-constrained-intra / strong-intra-smoothing / max-merge=3 / limit-refs=3 / limit-modes / me=3 / subme=3 / merange=57 / temporal-mvp / weightp / no-weightb / no-analyze-src-pics / deblock=0:0 / sao / no-sao-non-deblock / rd=4 / no-early-skip / rskip / no-fast-intra / no-tskip-fast / no-cu-lossless / no-b-intra / no-splitrd-skip / rdpenalty=0 / psy-rd=0.00 / psy-rdoq=1.00 / no-rd-refine / no-lossless / cbqpoffs=0 / crqpoffs=0 / rc=abr / bitrate=1200 / qcomp=0.60 / qpstep=4 / stats-write=0 / stats-read=2 / cplxblur=20.0 / qblur=0.5 / vbv-maxrate=4500 / vbv-bufsize=9000 / vbv-init=0.9 / ipratio=1.40 / pbratio=1.30 / aq-mode=2 / aq-strength=0.80 / cutree / zone-count=0 / no-strict-cbr / qg-size=32 / no-rc-grain / qpmax=69 / qpmin=0 / no-const-vbv / sar=0 / overscan=0 / videoformat=5 / range=0 / colorprim=2 / transfer=2 / colormatrix=2 / chromaloc=0 / display-window=0 / max-cll=0,0 / min-luma=0 / max-luma=1023 / log2-max-poc-lsb=8 / vui-timing-info / vui-hrd-info / slices=1 / no-opt-qp-pps / no-opt-ref-list-length-pps / multi-pass-opt-rps / scenecut-bias=0.05 / no-opt-cu-delta-qp / no-aq-motion / no-hdr / no-hdr-opt / no-dhdr10-opt / no-idr-recovery-sei / analysis-reuse-level=10 / scale-factor=0 / refine-intra=0 / refine-inter=0 / refine-mv=0 / limit-sao / ctu-info=0 / no-lowpass-dct / refine-mv-type=0 / copy-pic=1 / max-ausize-factor=1.0 / no-dynamic-refine / no-single-sei
Default : Yes
Forced : No

Audio
ID : 2
Format : AAC
Format/Info : Advanced Audio Codec
Format profile : HE-AAC / LC
Codec ID : A_AAC
Duration : 41 min 58 s
Bit rate : 223 kb/s
Channel(s) : 6 channels
Channel positions : Front: L C R, Side: L R, LFE
Sampling rate : 48.0 kHz / 24.0 kHz
Frame rate : 23.438 FPS (1024 spf)
Compression mode : Lossy
Delay relative to video : 31 ms
Stream size : 67.0 MiB (16%)
Language : English
Default : No
Forced : No

Subtitle
ID : 3
Format : UTF-8
Codec ID : S_TEXT/UTF8
Codec ID/Info : UTF-8 Plain Text
Duration : 41 min 33 s
Bit rate : 67 b/s
Count of elements : 787
Stream size : 20.7 KiB (0%)
Language : English
Default : No
Forced : No

Source Information
Release: The.Last.Ship.S05E04.Tropic.of.Cancer.1080p.AMZN.WEB-DL.DDP5.1.H.264-NTG.mkv (3.70 GBs)


Note From UTR
We have no issue with individuals posting or re-uploading our torrents on a platform we aren't on. However, if this is something you'd like to do, please do so in a 'as-is' format. We ask that you do not create a new torrent, include all descriptions you see above including the UTR logo, tags, notes and screenshots. If you'd like to become a permanent poster on a website we don't post to, feel free to get in contact with a UniTeam member.

If possible please donate: BTC 1QA5fum5AyXvWzdVCkQzUNvw3Ef15fHRaR


Category:TV > HEVC/x265
Lang:English  English
Total Size:427 MB
Info Hash:d02132b24bb004497f72055fa75b8136335c2835
Added By:UTR
Date Added:10-10-2018 14:29:53

Files

File List: 
 File Size
The Last Ship S05E04 Tropic of Cancer (1080p x265 10bit FS78 Joy).mkv427 MB



Comments

There are currently no comments. Be the first one to write something !