Yellowstone s03e04 ettv Invasion 2020 evo Yellowstone S03E01 doom patrol yts blindspot hindi 90 Day Fiance Happily Ever After S05E05 Marvels Agents of S.H.I.E.L.D. S07E07 The Chi S03E04 indian Stargirl s01e09 Arrow S08E07 Blindspot S05E10 2160p  Doom Patrol s02e05 Snowpiercer S01E08 Birds of Prey (and the Fantabulous Emancipation of One Harley Quinn) 2020 stargirl hightown  Blindspot S05E09 Snowpiercer S01E10 Perry Mason s01e03 ddr Ill Be Gone in the Dark S01E03 Trolls World Tour 2020 The 100 S07E08 Palm Springs 2020 Below Deck Mediterranean S05E07 Hightown S01E08 Force of Nature 2020 ufc NOS4A2 S02E04 Perry Mason S01E01 Yellowstone s03e03 condor etrg rq.mp4 Big Dogs S01E01 90 Day Fiance The Other Way S02E07 Wwe XXX Naked and Afraid XL S06E08 Perry Mason s01e04 Greyhound Hamilton 2020 the titan games s02e08 The Fk-It List 2020 the 100 The Outpost 2020 masterchef australia american dad MasterChef Australia S12E58 The Old Guard 2020 ethd Archive 2020 Snowpiercer S01E09 Scoob! 2020 snowpiercer Greyhound 2020 Relic 2020 etmovies yellowstone ITA  Dark P-Valley S01E01 Last Week Tonight the old guard perry mason 
Warning! Use a VPN When Downloading Torrents!
Your IP Address is 18.232.188.89. Location United States
Your Internet Provider can see when you download torrents! Hide your IP Address with a VPN
ETTV warns: You should use VPN to hide your torrenting. HIDE ME NOW
ETTV Recommended TV Shows
Snowpiercer.S01E10.720p.WEB.H264-METCON[ettv] torrent
Yellowstone.2018.S03E04.1080p.HEVC.x265.MeGusta.ETRG torrent
Stargirl.S01E09.480p.x264.mSD.ETRG torrent
Unidentified.Inside.Americas.UFO.Investigation.S02E01.1080p.WEB.h264-TRUMP[ettv] torrent
CMA.Best.of.Fest.2020.720p.WEB.h264-TRUMP[ettv] torrent
Black Monday - Season 2 - Mp4 x264 AC3 1080p torrent

ETTV Recommended SD
Suburban.Wildlife.2019.HDRip.XviD.AC3-EVO[EtMovies] torrent
Useless.Humans.2020.HDRip.XviD.AC3-EVO[EtMovies] torrent
Clementine.2020.HDRip.XviD.AC3-EVO[EtMovies] torrent
Coven.2020.HDRip.XviD.AC3-EVO[EtMovies] torrent

ETTV Recommended HD
Useless.Humans.2020.1080p.WEB-DL.H264.AC3-EVO[EtHD] torrent
Clementine.2020.1080p.WEB-DL.H264.AC3-EVO[EtHD] torrent
Suburban.Wildlife.2019.1080p.WEB-DL.H264.AC3-EVO[EtHD] torrent
Coven.2020.1080p.WEB-DL.H264.AC3-EVO[EtHD] torrent

ETTV Recommended UHD
Geostorm.2017.MULTI.2160p.HDR.WebRip.DTS-HDMA.5.1.HEVC-DDR.mkv torrent
Get.Hard.2015.MULTI.2160p.HDR.WebRip.DTS-HDMA.5.1.HEVC-DDR.mkv torrent
Heat.1995.MULTI.2160p.HDR.WebRip.DDP.5.1.HEVC-DDR.mkv torrent
The Laundromat.2019.MULTI.2160p.HDR.WebRip.DDP.5.1.HEVC-DDR.mkv torrent
Uncut.Gems.2020.MULTI.2160p.HDR.WebRip.DDP.5.1.HEVC-DDR.mkv torrent
American.Son.2019.MULTI.2160p.HDR.WebRip.DDP.5.1.HEVC-DDR.mkv torrent

ETTV Recommended Cam
The Hunt 2020 HDCAM x264 AC3-ETRG torrent
The Burnt Orange Heresy 2020 720p HDCAM-C1NEM4 torrent

ETTV Recommended Foreign
Cinderela Pop 2019 1080p NF WEB-DL DD+5.1.H264-BdC[EtHD] torrent
Snowpiercer.S01.EP09-10.1080p.NF.WEB-DL.HIN-ENG.DDP5.1.Atmos.x264-Telly torrent
Master Z: The Ip Man Legacy (2018)-alE13[BRremux 1080p x264 by alE13 AC3/DTS-Atmos][Lektor PL & Sub Eng/Chi][Chi] torrent
Hit.And.Run.2019.720p.WEB-DL.x264-Mkvking torrent
Romeo Juliet 2019 Hindi Dubbed 1080p Web-DL x264 AAC ESubs [TMB] torrent
Little.Singham.Legend.of.Dugabakka.2020.1080p.NF.WEB-DL.DDP2.0.x264-Telly torrent

ETTV Recommended Misc
Donna Missal ~Lighter  Pop Album Mp3~(2020) [320]  kbps Beats⭐ torrent
VA - 60s, 70s, 80s, 90s Oldies (2020) Mp3 320kbps [PMEDIA] ⭐️ torrent
VA - 538 Hitzone 93 (2020) Mp3 (320kbps) [Hunter] torrent
Headdock - Hidden Sounds & Vibrations 13-07-2020 [3CD] {1337x} torrent
Glenn Hughes - The Official Bootleg Series (Deluxe) 2020 ak torrent
Dil Bechara (Original Soundtrack) (2020) Hindi [FLAC] {1337PRO} torrent


Download Torrent "Mr. Mercedes S02E07 (1080p AMZN WEB-DL x265 HEVC 10bit AC3 5.1 Qman) [UTR]"

IMDB Details
Description:

N/A

Genre:

N/A

Download Torrent (Magnet)
Download Torrent (File)

Seeds: 178
Leechers: 56

Uploaded by:
UTR


Category:
TV > HEVC/x265 (Super High Quality, Small size, high CPU usage)


Details
Title:Mr. Mercedes S02E07 (1080p AMZN WEB-DL x265 HEVC 10bit AC3 5.1 Qman) [UTR]
Description:





Media Information
General
Format : Matroska
Format version : Version 4 / Version 2
File size : 1 005 MiB
Duration : 50 min 0 s
Overall bit rate : 2 811 kb/s
Encoded date : UTC 2018-10-09 15:53:02
Writing application : mkvmerge v27.0.0 ('Metropolis') 64-bit
Writing library : libebml v1.3.6 + libmatroska v1.4.9

Video
ID : 1
Format : HEVC
Format/Info : High Efficiency Video Coding
Format profile : Main [email protected]@Main
Codec ID : V_MPEGH/ISO/HEVC
Duration : 50 min 0 s
Bit rate : 2 169 kb/s
Width : 1 920 pixels
Height : 1 080 pixels
Display aspect ratio : 16:9
Frame rate mode : Constant
Frame rate : 23.976 (24000/1001) FPS
Color space : YUV
Chroma subsampling : 4:2:0
Bit depth : 10 bits
Bits/(Pixel*Frame) : 0.044
Stream size : 776 MiB (77%)
Writing library : x265 2.8+74-fd517ae68f93:[Windows][MSVC 1915][64 bit] 10bit
Encoding settings : cpuid=1111039 / frame-threads=4 / numa-pools=16 / wpp / no-pmode / no-pme / no-psnr / no-ssim / log-level=2 / input-csp=1 / input-res=1920x1080 / interlace=0 / total-frames=71935 / level-idc=0 / high-tier=1 / uhd-bd=0 / ref=4 / no-allow-non-conformance / no-repeat-headers / annexb / no-aud / no-hrd / info / hash=0 / no-temporal-layers / open-gop / min-keyint=23 / keyint=250 / gop-lookahead=0 / bframes=8 / b-adapt=2 / b-pyramid / bframe-bias=0 / rc-lookahead=25 / lookahead-slices=4 / scenecut=40 / radl=0 / no-intra-refresh / ctu=64 / min-cu-size=8 / rect / no-amp / max-tu-size=32 / tu-inter-depth=1 / tu-intra-depth=1 / limit-tu=0 / rdoq-level=2 / dynamic-rd=0.00 / no-ssim-rd / signhide / no-tskip / nr-intra=0 / nr-inter=0 / no-constrained-intra / strong-intra-smoothing / max-merge=3 / limit-refs=3 / limit-modes / me=3 / subme=3 / merange=57 / temporal-mvp / weightp / no-weightb / no-analyze-src-pics / deblock=0:0 / sao / no-sao-non-deblock / rd=4 / no-early-skip / rskip / no-fast-intra / no-tskip-fast / no-cu-lossless / no-b-intra / no-splitrd-skip / rdpenalty=0 / psy-rd=2.00 / psy-rdoq=2.00 / no-rd-refine / no-lossless / cbqpoffs=0 / crqpoffs=0 / rc=crf / crf=21.5 / qcomp=0.60 / qpstep=4 / stats-write=0 / stats-read=0 / ipratio=1.40 / pbratio=1.30 / aq-mode=2 / aq-strength=1.00 / cutree / zone-count=0 / no-strict-cbr / qg-size=32 / no-rc-grain / qpmax=69 / qpmin=0 / no-const-vbv / sar=0 / overscan=0 / videoformat=5 / range=0 / colorprim=2 / transfer=2 / colormatrix=2 / chromaloc=0 / display-window=0 / max-cll=0,0 / min-luma=0 / max-luma=1023 / log2-max-poc-lsb=8 / vui-timing-info / vui-hrd-info / slices=1 / no-opt-qp-pps / no-opt-ref-list-length-pps / no-multi-pass-opt-rps / scenecut-bias=0.05 / no-opt-cu-delta-qp / no-aq-motion / no-hdr / no-hdr-opt / no-dhdr10-opt / no-idr-recovery-sei / analysis-reuse-level=5 / scale-factor=0 / refine-intra=0 / refine-inter=0 / refine-mv=0 / no-limit-sao / ctu-info=0 / no-lowpass-dct / refine-mv-type=0 / copy-pic=1 / max-ausize-factor=1.0 / no-dynamic-refine / no-single-sei
Language : English
Default : Yes
Forced : No

Audio
ID : 2
Format : E-AC-3
Format/Info : Enhanced Audio Coding 3
Format settings, Endianness : Big
Codec ID : A_EAC3
Duration : 50 min 0 s
Bit rate mode : Constant
Bit rate : 640 kb/s
Channel(s) : 6 channels
Channel positions : Front: L C R, Side: L R, LFE
Sampling rate : 48.0 kHz
Frame rate : 187.500 FPS (256 spf)
Compression mode : Lossy
Stream size : 229 MiB (23%)
Language : English
Default : Yes
Forced : No

Subtitle
ID : 3
Format : UTF-8
Codec ID : S_TEXT/UTF8
Codec ID/Info : UTF-8 Plain Text
Duration : 49 min 52 s
Bit rate : 61 b/s
Count of elements : 937
Stream size : 22.5 KiB (0%)
Language : English
Default : Yes
Forced : No

Source Information
Release: Unknown Source/NO-GROUP


Note From UTR
We have no issue with individuals posting or re-uploading our torrents on a platform we aren't on. However, if this is something you'd like to do, please do so in a 'as-is' format. We ask that you do not create a new torrent, include all descriptions you see above including the UTR logo, tags, notes and screenshots. If you'd like to become a permanent poster on a website we don't post to, feel free to get in contact with a UniTeam member.

If possible please donate: BTC 1QA5fum5AyXvWzdVCkQzUNvw3Ef15fHRaR


Category:TV > HEVC/x265
Lang:English  English
Total Size:1,005 MB
Info Hash:82c1a8bc2c4ab64cdd91d28473a98715bdc69b9c
Added By:UTR
Date Added:10-10-2018 15:14:16

Files

File List: 
 File Size
Mr.Mercedes.S02E07.1080p.AMZN.WEB-DL.x265.10bit.EAC3.6.0-Qman[UTR].mkv1,005 MB



Comments

There are currently no comments. Be the first one to write something !