the 100 ettv arrow español Scoob! 2020 hanna Birds of Prey (and the Fantabulous Emancipation of One Harley Quinn) 2020 evo Condor S02E06 the protector Hanna s02e07 Eurovision Song Contest The Story of Fire Saga 2020 hindi Hanna s02e02 marvel week snowpiercer Greyhound 2020 Yellowstone S03E04 dark The Outpost 2020 The Real Housewives of Beverly Hills S10E09 Hamilton 2020 aew rq.mp4 Blindspot Ettv You Should Have Left 2020 ddr Artemis Fowl 2020 Dirty John S02E07 Desperados 2020 Perry Mason s01e03 stargirl warrior nun Hanna s02e08 Stargirl S01E08 Yellowstone S03E03 Hanna s02e03 dc week etmovies yts warrior nun s01e01 condor big bang theory español The 100 S07E07 Marvels Agents of S.H.I.E.L.D. S07E07 agents The 100 S07E08 Trolls World Tour 2020 agents of  Irresistible 2020 Snowpiercer s01e08 doom patrol Big Dogs S01E01 Hanna s02e05 wwe Force of Nature 2020 Hanna s02e04 billions ethd etrg ita The Blacklist S07E15 bone yellowstone The Challenge s35e15 Hanna s02e06 Seal Team Deadliest Catch S16E13 xxx The King of Staten Island 2020 Hanna s02e01 
Warning! Use a VPN When Downloading Torrents!
Your IP Address is 3.234.241.200. Location United States
Your Internet Provider can see when you download torrents! Hide your IP Address with a VPN
ETTV warns: You should use VPN to hide your torrenting. HIDE ME NOW
ETTV Recommended TV Shows
The.100.S07E08.XviD-AFG[ettv] torrent
Marvels.Agents.of.S.H.I.E.L.D.S07E07.HDTV.x264-SVA[ettv] torrent
Doom.Patrol.S02E05.1080p.HEVC.x265.Eng.DD.5.1.MeGusta.ETRG torrent
Blindspot.S05E09.720p.HDTV.x264-AVS[ettv] torrent
Blindspot.S05E10.720p.HDTV.x264-AVS[ettv] torrent
WWE Main Event 2020 07 08 720p WEB h264-TBS [TJET] torrent

ETTV Recommended SD
Volition.2019.HDRip.XviD.AC3-EVO[EtMovies] torrent
The.Beach.House.2020.HDRip.XviD.AC3-EVO[EtMovies] torrent
Relic.2020.HDRip.XviD.AC3-EVO[EtMovies] torrent
The.Runners.2020.HDRip.XviD.AC3-EVO[EtMovies] torrent

ETTV Recommended HD
Volition.2019.1080p.WEB-DL.H264.AC3-EVO[EtHD] torrent
The.Beach.House.2020.1080p.WEBRip.X264.AC3-EVO[EtHD] torrent
Between.Shadow.And.Soul.2020.1080p.WEBRip.X264.DD.5.1-EVO[EtHD] torrent
Relic.2020.1080p.WEB-DL.H264.AC3-EVO[EtHD] torrent

ETTV Recommended UHD
Escape.From.L.A.1996.4K.MULTi.2160p.HDR.WEBRip.TrueHD.5.1.HEVC-DDR.mkv torrent
INXS - Live Baby Live 1991 (2020).UHD.Bluray.2160p.HDR.Atmos.7.1.HEVC-DDR.mkv torrent
Tropic.Thunder.2008.MULTi.TC.2160p.HDR.WEBRip.DTS-HDMA.5.1.HEVC-DDR.mkv torrent
Playing.with.Fire.2019.4K.MULTI.2160p.HDR.WEBRip.DTS-HDMA.5.1.HEVC-DDR.mkv torrent
The.Last.Days.of.American.Crime.2020.4K.MULTI.2160p.HDR.WEBRip.DDP.5.1.HEVC-DDR.mkv torrent
Onward - Oltre la magia (2020) [BluRay Rip 2160p HEVC 10bit-HDR ITA-ENG DD+AC3-SUBS] [M@HD] torrent

ETTV Recommended Cam
The Hunt 2020 HDCAM x264 AC3-ETRG torrent
The Burnt Orange Heresy 2020 720p HDCAM-C1NEM4 torrent

ETTV Recommended Foreign
Mumbai Pune Mumbai (2010) Marathi 720p WEBRip x264 AAC ESubs - 950MB - MovCr torrent
The.Protector.S04.1080p.NF.WEB-DL.HIN-ENG.DDP5.1.x264-Telly torrent
Promare (2019) BluRay FullHD 1080p.H264 Ita Jpn AC3 5.1 Sub Ita Eng MIRCrew torrent
Shadow.Animals.[Skuggdjur].2017.1080p.WEBRip.x264.AAC.HORiZON-ArtSubs torrent
Gauguin.a.Tahiti.Il.Paradiso Perduto.2019 HDTV 1080p Ita x265-NAHOM torrent
Centurion (2010) AC3 5.1 ITA.ENG 1080p H265 sub ita.eng Sp33dy94 MIRCrew torrent

ETTV Recommended Misc
100 Tracks All Out 60s Playlist Spotify Mp3~(2020) [320]  kbps Beats⭐ torrent
Bollywood Retro Hits Of 90's [FLAC] {1337PRO} torrent
Disturbed - The Sickness (20th Anniversary Edition) (2020) Mp3 320kbps [PMEDIA] ⭐️ torrent
The Streets - None Of Us Are Getting Out Of This Life Alive (2020) [320 KBPS] torrent


Download Torrent "You're Next (2011) + Extras (1080p BluRay x265 HEVC 10bit AAC 5.1 r00t..."

IMDB Details
Description:

N/A

Genre:

N/A

Download Torrent (Magnet)
Download Torrent (File)

Seeds: 400
Leechers: 288

Uploaded by:
QxR


Category:
Movies > HEVC/x265 (Super High Quality, Small size, high CPU usage)


Details
Title:You're Next (2011) + Extras (1080p BluRay x265 HEVC 10bit AAC 5.1 r00t...
Description:


Note from Encoder:
Encoded with CRF 18, includes English subtitles plus 2 audio commentaries and a behind the scenes featurette.



Encode Screenshots (Click for full quality)














Media Information
General
Format : Matroska
Format version : Version 4 / Version 2
File size : 3.11 GiB
Duration : 1 h 34 min
Overall bit rate : 4 705 kb/s
Movie name : You're Next 2011 1080p GBR Blu-ray AVC DTS-HD MA 5.1 - taterzero
Encoded date : UTC 2018-10-10 17:52:22
Writing application : mkvmerge v27.0.0 ('Metropolis') 64-bit
Writing library : libebml v1.3.6 + libmatroska v1.4.9
Cover : Yes
Attachments : cover.jpg
Writing frontend : StaxRip v1.7.0.6

Video
ID : 1
Format : HEVC
Format/Info : High Efficiency Video Coding
Format profile : Main [email protected]@Main
Codec ID : V_MPEGH/ISO/HEVC
Duration : 1 h 34 min
Bit rate : 4 144 kb/s
Width : 1 920 pixels
Height : 800 pixels
Display aspect ratio : 2.40:1
Frame rate mode : Constant
Frame rate : 23.976 (24000/1001) FPS
Color space : YUV
Chroma subsampling : 4:2:0
Bit depth : 10 bits
Bits/(Pixel*Frame) : 0.113
Stream size : 2.74 GiB (88%)
Title : Encoded by r00t
Writing library : x265 2.9+1-169e76b6bbcc:[Windows][GCC 8.2.0][64 bit] 10bit
Encoding settings : cpuid=1111039 / frame-threads=2 / numa-pools=4 / wpp / no-pmode / no-pme / no-psnr / no-ssim / log-level=2 / input-csp=1 / input-res=1920x800 / interlace=0 / total-frames=136131 / level-idc=0 / high-tier=1 / uhd-bd=0 / ref=4 / no-allow-non-conformance / no-repeat-headers / annexb / no-aud / no-hrd / info / hash=0 / no-temporal-layers / open-gop / min-keyint=23 / keyint=250 / gop-lookahead=0 / bframes=4 / b-adapt=2 / b-pyramid / bframe-bias=0 / rc-lookahead=25 / lookahead-slices=4 / scenecut=40 / radl=0 / no-intra-refresh / ctu=64 / min-cu-size=8 / no-rect / no-amp / max-tu-size=32 / tu-inter-depth=1 / tu-intra-depth=1 / limit-tu=0 / rdoq-level=2 / dynamic-rd=0.00 / no-ssim-rd / signhide / no-tskip / nr-intra=0 / nr-inter=0 / no-constrained-intra / no-strong-intra-smoothing / max-merge=3 / limit-refs=3 / limit-modes / me=3 / subme=3 / merange=57 / temporal-mvp / weightp / no-weightb / no-analyze-src-pics / deblock=0:0 / no-sao / no-sao-non-deblock / rd=4 / no-early-skip / no-rskip / no-fast-intra / no-tskip-fast / no-cu-lossless / no-b-intra / no-splitrd-skip / rdpenalty=0 / psy-rd=2.00 / psy-rdoq=1.00 / no-rd-refine / no-lossless / cbqpoffs=0 / crqpoffs=0 / rc=crf / crf=18.0 / qcomp=0.60 / qpstep=4 / stats-write=0 / stats-read=0 / ipratio=1.40 / pbratio=1.30 / aq-mode=3 / aq-strength=1.00 / cutree / zone-count=0 / no-strict-cbr / qg-size=32 / no-rc-grain / qpmax=69 / qpmin=0 / no-const-vbv / sar=0 / overscan=0 / videoformat=5 / range=0 / colorprim=2 / transfer=2 / colormatrix=2 / chromaloc=0 / display-window=0 / max-cll=0,0 / min-luma=0 / max-luma=1023 / log2-max-poc-lsb=8 / vui-timing-info / vui-hrd-info / slices=1 / no-opt-qp-pps / no-opt-ref-list-length-pps / no-multi-pass-opt-rps / scenecut-bias=0.05 / no-opt-cu-delta-qp / no-aq-motion / no-hdr / no-hdr-opt / no-dhdr10-opt / no-idr-recovery-sei / analysis-reuse-level=5 / scale-factor=0 / refine-intra=0 / refine-inter=0 / refine-mv=0 / no-limit-sao / ctu-info=0 / no-lowpass-dct / refine-mv-type=0 / copy-pic=1 / max-ausize-factor=1.0 / no-dynamic-refine / no-single-sei
Default : Yes
Forced : No

Audio #1
ID : 2
Format : AAC
Format/Info : Advanced Audio Codec
Format profile : LC
Codec ID : A_AAC
Duration : 1 h 34 min
Bit rate : 395 kb/s
Channel(s) : 6 channels
Channel positions : Front: L C R, Side: L R, LFE
Sampling rate : 48.0 kHz
Frame rate : 46.875 FPS (1024 spf)
Compression mode : Lossy
Delay relative to video : 20 ms
Stream size : 267 MiB (8%)
Language : English
Default : Yes
Forced : No

Audio #2
ID : 3
Format : AAC
Format/Info : Advanced Audio Codec
Format profile : HE-AAC / LC
Codec ID : A_AAC
Duration : 1 h 34 min
Bit rate : 80.0 kb/s
Channel(s) : 2 channels
Channel positions : Front: L R
Sampling rate : 48.0 kHz / 24.0 kHz
Frame rate : 23.438 FPS (1024 spf)
Compression mode : Lossy
Delay relative to video : 40 ms
Stream size : 54.2 MiB (2%)
Title : Audio Commentary with Adam Wingard and Simon Barrett
Language : English
Default : No
Forced : No

Audio #3
ID : 4
Format : AAC
Format/Info : Advanced Audio Codec
Format profile : HE-AAC / LC
Codec ID : A_AAC
Duration : 1 h 34 min
Bit rate : 80.0 kb/s
Channel(s) : 2 channels
Channel positions : Front: L R
Sampling rate : 48.0 kHz / 24.0 kHz
Frame rate : 23.438 FPS (1024 spf)
Compression mode : Lossy
Delay relative to video : 40 ms
Stream size : 54.2 MiB (2%)
Title : Audio Commentary with Adam Wingard, Simon Barrett, Sharni Vinson and Barbara Crampton
Language : English
Default : No
Forced : No

Subtitle
ID : 5
Format : PGS
Muxing mode : zlib
Codec ID : S_HDMV/PGS
Codec ID/Info : Picture based subtitle format used on BDs/HD-DVDs
Duration : 1 h 30 min
Bit rate : 28.2 kb/s
Count of elements : 1928
Stream size : 18.3 MiB (1%)
Language : English
Default : No
Forced : No

Menu
00:00:00.000 : en:Chapter 01
00:04:40.738 : en:Chapter 02
00:15:23.088 : en:Chapter 03
00:23:04.633 : en:Chapter 04
00:33:53.573 : en:Chapter 05
00:45:14.545 : en:Chapter 06
00:54:22.634 : en:Chapter 07
01:01:40.363 : en:Chapter 08
01:11:26.740 : en:Chapter 09
01:18:00.842 : en:Chapter 10
01:24:22.891 : en:Chapter 11
01:31:40.203 : en:Chapter 12

Source Information
Release : You're Next 2011 1080p GBR Blu-ray AVC DTS-HD MA 5.1 - taterzero (27.46 GB)



Note from QxR:
Whilst we are happy for our releases to be re-posted on a platform we aren't on, please do so in an 'as-is' format. We ask that you do not create a new torrent, include all descriptions you see above including the QxR logo, tags, notes and screenshots. If you'd like to become a permanent poster on a website we don't post to, feel free to get in contact with a QxR member.
Category:Movies > HEVC/x265
Lang:English  English
Total Size:3.27 GB
Info Hash:36526f38e9e21516b2593c5d885299af413a74fd
Added By:QxR
Date Added:11-10-2018 01:19:00

Files

File List: 
 File Size
Featurettes/No Ordinary Home Invasion - The Making of You're Next.mkv155 MB
You're Next (2011) (1080p BluRay x265 r00t).mkv3.11 GB



Comments

There are currently no comments. Be the first one to write something !