family guy flash s05e09 the walking dead evo ray donovan ddr counterpart 1080p YIFY SUPERGIRL venom xxx Evo vikings the good place titans dtone christmas game of thrones 720p Outlander S04E06 2160P italian 0 etmovies god friended me s01e10 doctor who s11e10 pubg outlander venom ita charmed s01e09 ncis ITA The Flash S05E09 empire the flash wwe big bang theory 1 hindi The Big Bang theory Nightflyers star trek discovery español ettv it south park 2018 ita doctor who ıt 2017 Flash anal bbc ethd SUPERNATURAL nfl uhd 2018 movies fgt big bang theory español great british bake off s09e10 Mowgli Bohemian Rhapsody Blindspot 1080P arrow ufc 231 ita 2018 Madam Secretary etrg 2 
Warning! Use a VPN When Downloading Torrents!
Your IP Address is 3.80.218.53. Location is United States
Your Internet Provider is tracking your torrent activity! Hide your IP ADDRESS with a VPN!
We strongly recommend using TrustZone to anonymize your torrenting. 30 Day Money Back Guarantee!
Try it Now!
ETTV Recommended TV Shows
Arrow.S07E09.HDTV.x264-SVA[ettv] torrent
DCs.Legends.of.Tomorrow.S04E08.HDTV.x264-SVA[ettv] torrent
Magnum.P.I.2018.S01E10.HDTV.x264-SVA[ettv] torrent
WWE Monday Night Raw 2018 12 10 HDTV x264-NWCHD [TJET] torrent

ETTV Recommended Xvid
Goosebumps.Haunted Halloween.2018.HDRip.XviD.AC3-EVO[EtMovies] torrent
The Princess and the Dragon.2018.HDRip.XviD.AC3-EVO torrent
Heaven and Hell.2018.HDRip.XviD.AC3-EVO torrent
Night.School.2018.HDRip.XViD-ETRG torrent

ETTV Recommended HD
The.Predator.2018.1080p.BluRay.x264-SPARKS[EtHD] torrent
Elizabeth.Harvest.2018.REPACK.1080p.BluRay.x264-ROVERS[EtHD] torrent
Goosebumps.Haunted Halloween.2018.1080p.WEB-DL.H264.AC3-EVO[EtHD] torrent
A.Simple.Favor.2018.720p.BluRay.X264-DEFLATE[EtHD] torrent

ETTV Recommended UHD
Mission Impossible - Fallout.2018.IMAX.Muti.UHD.2160p.Bluray.x265.Atmos.7.1[En+Hi+]-DTOne torrent
Venom 2018.MULTi.UHD.2160p.BluRay.x265.HDR.Atmos.7.1-DTOne torrent
The Nun 2018 MULTi.UHD.2160p.Bluray.x265.HDR.Atmos.7.1-DTOne torrent
River Runs Red 2018.UHD.2160p.Bluray.x265.HDR.DTS-HDMA..1-DTOne torrent

ETTV Recommended Cam
Aquaman 2018 HDCAM.XViD.AC3-ETRG torrent
The Possession of Hannah Grace 2018 HDCAM.XViD.AC3-ETRG torrent
Fantastic Beasts The Crimes of Grindelwald 2018 HD-TS.XViD.AC3-ETRG torrent
Creed 2 2018.NEW HDCAM.XViD.AC3-ETRG torrent

ETTV Recommended Foreign
Mowgli.2018.Multi.1080p.HEVC.HDR.DDP.5.1[En+Hi+Ta+Te]-DTOne torrent
Kalavani Mappillai (2018) [TAMIL - 720p - WEB HDRip - x264 - DD 5.1 - ESub - 2GB] - MAZE torrent
White Fang (1991) 720p WEBRip x264 Eng Subs [Dual Audio] [Hindi DD 2.0 - English 2.0] Exclusive By -=!Dr.STAR!=- torrent
Don't Look Under the Bed (1999) Disney DCOM 720p HDRip x264 Eng Subs [Dual Audio] [Hindi DD 2.0 - English 2.0] Exclusive By -=!Dr.STAR!=- torrent

Social


Download Torrent "Chicago Med S04E09 (1080p AMZN WEB-DL x265 HEVC 10bit AAC 5.1 Joy) [UTR]"

IMDB Details
Description:

N/A

Genre:

N/A

Download Torrent (Magnet)
Download Torrent (File)
Seeds: 73
Leechers: 33
Completed: 797 
Last Checked: 07-12-2018 11:58:45


Loading...
Details
Title:Chicago Med S04E09 (1080p AMZN WEB-DL x265 HEVC 10bit AAC 5.1 Joy) [UTR]
Description:





Media Information
General
Format                                   : Matroska
Format version                           : Version 4 / Version 2
File size                                : 427 MiB
Duration                                 : 41 min 53 s
Overall bit rate                         : 1 425 kb/s
Movie name                               : Chicago Med S04E09 Death Do Us Part  (1080p x265 10bit Joy)
Encoded date                             : UTC 2018-12-07 04:31:17
Writing application                      : mkvmerge v24.0.0 ('Beyond The Pale') 64-bit
Writing library                          : libebml v1.3.6 + libmatroska v1.4.9
Writing frontend                         : StaxRip v1.8.2.0, a JoyBell Encode

Video
ID                                       : 1
Format                                   : HEVC
Format/Info                              : High Efficiency Video Coding
Format profile                           : Main [email protected]@Main
Codec ID                                 : V_MPEGH/ISO/HEVC
Duration                                 : 41 min 53 s
Bit rate                                 : 1 201 kb/s
Width                                    : 1 920 pixels
Height                                   : 1 080 pixels
Display aspect ratio                     : 16:9
Frame rate mode                          : Constant
Frame rate                               : 23.976 (24000/1001) FPS
Color space                              : YUV
Chroma subsampling                       : 4:2:0
Bit depth                                : 10 bits
Bits/(Pixel*Frame)                       : 0.024
Stream size                              : 360 MiB (84%)
Writing library                          : x265 2.8+19-bcdc610cf5f0:[Windows][MSVC 1914][64 bit] 10bit
Encoding settings                        : cpuid=1111039 / frame-threads=3 / numa-pools=8 / wpp / no-pmode / no-pme / no-psnr / ssim / log-level=2 / input-csp=1 / input-res=1920x1080 / interlace=0 / total-frames=60263 / level-idc=0 / high-tier=1 / uhd-bd=0 / ref=4 / no-allow-non-conformance / no-repeat-headers / annexb / no-aud / no-hrd / info / hash=0 / no-temporal-layers / open-gop / min-keyint=23 / keyint=250 / gop-lookahead=0 / bframes=4 / b-adapt=2 / b-pyramid / bframe-bias=0 / rc-lookahead=80 / lookahead-slices=4 / scenecut=40 / radl=0 / no-intra-refresh / ctu=64 / min-cu-size=8 / no-rect / no-amp / max-tu-size=32 / tu-inter-depth=1 / tu-intra-depth=1 / limit-tu=0 / rdoq-level=2 / dynamic-rd=0.00 / ssim-rd / signhide / no-tskip / nr-intra=0 / nr-inter=0 / no-constrained-intra / strong-intra-smoothing / max-merge=3 / limit-refs=3 / limit-modes / me=3 / subme=3 / merange=57 / temporal-mvp / weightp / no-weightb / no-analyze-src-pics / deblock=0:0 / sao / no-sao-non-deblock / rd=4 / no-early-skip / rskip / no-fast-intra / no-tskip-fast / no-cu-lossless / no-b-intra / no-splitrd-skip / rdpenalty=0 / psy-rd=2.05 / psy-rdoq=0.95 / no-rd-refine / no-lossless / cbqpoffs=0 / crqpoffs=0 / rc=abr / bitrate=1200 / qcomp=0.60 / qpstep=4 / stats-write=0 / stats-read=2 / cplxblur=20.0 / qblur=0.5 / vbv-maxrate=3200 / vbv-bufsize=7400 / vbv-init=0.9 / ipratio=1.40 / pbratio=1.30 / aq-mode=2 / aq-strength=0.80 / cutree / zone-count=0 / no-strict-cbr / qg-size=32 / no-rc-grain / qpmax=69 / qpmin=0 / no-const-vbv / sar=0 / overscan=0 / videoformat=5 / range=0 / colorprim=2 / transfer=2 / colormatrix=2 / chromaloc=0 / display-window=0 / max-cll=0,0 / min-luma=0 / max-luma=1023 / log2-max-poc-lsb=8 / vui-timing-info / vui-hrd-info / slices=1 / no-opt-qp-pps / no-opt-ref-list-length-pps / multi-pass-opt-rps / scenecut-bias=0.05 / no-opt-cu-delta-qp / no-aq-motion / no-hdr / no-hdr-opt / no-dhdr10-opt / no-idr-recovery-sei / analysis-reuse-level=10 / scale-factor=0 / refine-intra=0 / refine-inter=0 / refine-mv=0 / limit-sao / ctu-info=0 / no-lowpass-dct / refine-mv-type=0 / copy-pic=1 / max-ausize-factor=1.0 / no-dynamic-refine / no-single-sei
Default                                  : Yes
Forced                                   : No

Audio
ID                                       : 2
Format                                   : AAC
Format/Info                              : Advanced Audio Codec
Format profile                           : HE-AACv2 / HE-AAC / LC
Codec ID                                 : A_AAC
Duration                                 : 41 min 53 s
Bit rate                                 : 222 kb/s
Channel(s)                               : 6 channels
Channel(s)_Original                      : 2 channels / 22 channels / 22 channels
Channel positions                        : Front: L R / Front: 7, Side: 6, Back: 6, LFE= 3 / Front: 7, Side: 6, Back: 6, LFE= 3
Sampling rate                            : 48.0 kHz / 48.0 kHz / 24.0 kHz
Frame rate                               : 23.438 FPS (1024 spf)
Compression mode                         : Lossy
Delay relative to video                  : 31 ms
Stream size                              : 66.6 MiB (16%)
Language                                 : English
Default                                  : No
Forced                                   : No

Subtitle #1
ID                                       : 3
Format                                   : UTF-8
Codec ID                                 : S_TEXT/UTF8
Codec ID/Info                            : UTF-8 Plain Text
Duration                                 : 41 min 20 s
Bit rate                                 : 84 b/s
Count of elements                        : 893
Stream size                              : 25.5 KiB (0%)
Language                                 : English
Default                                  : No
Forced                                   : No

Subtitle #2
ID                                       : 4
Format                                   : UTF-8
Codec ID                                 : S_TEXT/UTF8
Codec ID/Info                            : UTF-8 Plain Text
Duration                                 : 41 min 42 s
Bit rate                                 : 90 b/s
Count of elements                        : 981
Stream size                              : 27.6 KiB (0%)
Language                                 : English
Default                                  : No
Forced                                   : No

Source Information
Release: Chicago.Med.S04E09.Death.Do.Us.Part.1080p.AMZN.WEB-DL.DDP5.1.H.264-KiNGS.mkv (1.26 GBs)

Category:TV > HEVC/x265
Lang:English  English
Total Size:427 MB
Info Hash:7d56910d9fae8e03360ec275648e47afedc0f8d2
Added By:UTR
Date Added:07-12-2018 11:58:37

Files

File List: 
 File Size
Chicago Med S04E09 Death Do Us Part (1080p x265 10bit S96 Joy).mkv427 MB



Loading...
Comments

There are currently no comments. Be the first one to write something !

Disclaimer: None of the files shown here are actually hosted or transmitted by this server. The links are provided solely by this site's users. The site moderation is also a service provided by the site's users. The administrator of this site (ettv.be) cannot be held responsible for what its users post, or any other actions of its users. You may not use this site to distribute or download any material when you do not have the legal rights to do so. It is your own responsibility to adhere to these terms.