the mandalorian Deputy joker Parasite Stumptown s01e11 etmovies servant 0 vikings legacies jumanji the next level 2019 etrg yts modern family supernatural STAR WARS Servant S01E10 frozen 2 rq.mp4 ettv young sheldon S03E12 legacies s02e09 Mom S07E12 Gemini Man 2019 The Good Place deputy s01e03 Modern Family S11E11 Star Wars The Rise of Skywalker 2019 supernatural s15e09 frozen ii 2019 Dark Waters 1917 2019 ddr chicago fire s08e11 68 whiskey s01e01 arrow Joker 2019 ethd Ford v Ferrari 2019 Sex Education S02 harley quinn s01e08 terminator dark fate legends of tomorrow Knives Out 2019 The Good Place S04E11 Hindi Maleficent Mistress of Evil 2019 chicago med s05e11 Criminal Minds S15E03 dolittle 2020 sex education season 2 Motherless Brooklyn 2019 evil s01e12 bad boys for life 2020 evil terminator Xxx Underwater 2020 vikings s06e07 The Magicians s05e01 evo The Flash sex education dvdscr Midway 2019 arrow s08e08 ita harley quinn Bala young sheldon Terminator Dark Fate 2019 
Warning! Use a V.P.N when Downloading Torrents!
Your IP Address is 18.206.12.79. Location is United States
Your Internet Provider is tracking your torrent activity! Hide your IP ADDRESS with a V.P.N!
We strongly recommend using ExpressVP-N to anonymize your torrenting. 30 Day Money Back Guarantee!
Try it Now!
ETTV Recommended TV Shows
Deputy.S01E03.WEB.x264-XLF[ettv] torrent
Gold.Rush.S10E14.WEBRip.x264-TBS[ettv] torrent
Dynasty.2017.S03E09.HDTV.x264-SVA[ettv] torrent
WWE Friday Night SmackDown 2020 01 17 HDTV x264-NWCHD [TJET] torrent

ETTV Recommended SD
Queen.And.Slim.2019.QuerySCR x264-TOPKEK torrent
Color Out of Space.2019.HDRip.XviD.AC3-EVO torrent
Troop Zero 2019.HDRip.XviD.AC3-EVO torrent
The.Host.2020.HDRip.XviD.AC3-EVO torrent

ETTV Recommended HD
A.Fall.from.Grace.2020.1080p.NF.WEB-Rip.DDP5.1.HEVC-DDR[EtHD] torrent
Ant-Man.and.the.Wasp.2018.BRRip.1080p.HEVC.HDR.Multi.DD5.1.ETRG torrent
Dark.Waters.2019.720p.SCREENER.x264.AAC-ETRG torrent
Terminator Dark Fate 2019.MULTi.BluRay.1080p.TrueHD.Atmos.7.1.(En.Fr).HEVC-DDR[EtHD] torrent

ETTV Recommended UHD
You.Were.Never.Really.Here.2017.2160p.AMZN.WEBRip.DDP5.1.HEVC-DDR[EtHD] torrent
Battle.Los.Angeles.2011.2160p.AMZN.WEBRip.DDP5.1.HEVC-DDR[EtHD] torrent
The Sword in the Stone 1963 2160p HDR DisneyP WEBRip DTS-HD MA 5.1 HEVC-DDR[EtHD] torrent
Terminator Dark Fate 2019.MULTi.UHD.BluRay.2160p.HDR.TrueHD.Atmos.7.1.HEVC-DDR torrent

ETTV Recommended Cam
Dolittle 2020 HDCAM x264 AC3-ETRG torrent
Seberg 2019 HDCAM x264 AC3-ETRG torrent
The Grudge 2020 720p HDTC-GETB8 torrent
Bad Boys for Life 2020 HDCAM x264 AC3-ETRG torrent

ETTV Recommended Foreign
Pagalpanti.2019.1080p.AMZN.WEB-Rip.DDP.5.1.HEVC-DDR[EtHD] torrent
Jai Mummy Di (2020) Hindi 720p PreDVD x264 AAC 1.2GB CineVood Exclusive torrent
Bala 2019 Hindi 720p 10bit HS WEBRip x265 HEVC AAC ESub - MoviePirate - Telly.mkv torrent
The.Battle.of.Jangsari.2019.1080p.BluRay.x264-YOL0W[EtHD] torrent


Download Torrent "The Lion King (1994) Complete (1080p BluRay x265 HEVC 10bit AAC 7.1 Q22 Joy..."

IMDB Details
Description:

A Lion cub crown prince is tricked by a treacherous uncle into thinking he caused his father's death and flees into exile in despair, only to learn in adulthood his identity and his responsibilities.

Genre:

Animation, Adventure, Drama, Family, Musical

Download Torrent (Magnet)
Download Torrent (File)
Seeds: 276
Leechers: 106
Completed: 1,496 
Last Checked: 28-12-2018 10:59:09


Loading...
Details
Title:The Lion King (1994) Complete (1080p BluRay x265 HEVC 10bit AAC 7.1 Q22 Joy...
Description:
[CENTER][img="https://i.postimg.cc/hjkyHjgc/pirate-shark-banner-with-forum-site-address-www-imagesplitter-n.png" alt=""][img="https://i.postimg.cc/CLHPQS2p/pirate-shark-banner-with-forum-site-address-www-imagesplitter-n.png" alt=""]
[img="https://i.postimg.cc/13vWyMPW/pirate-shark-banner-with-forum-site-address-www-imagesplitter-n.png" alt=""][img="https://i.postimg.cc/yNWLx987/pirate-shark-banner-with-forum-site-address-www-imagesplitter-n.png" alt=""]






Media Information
Includes Featurettes and Audio Commentary Track

Media Information
General
Format : Matroska
Format version : Version 4 / Version 2
File size : 1.67 GiB
Duration : 1 h 28 min
Overall bit rate : 2 700 kb/s
Movie name : The Lion King 1994 (1080p x265 q22 S98 Joy)[UTR]
Encoded date : UTC 2018-12-23 04:57:44
Writing application : mkvmerge v29.0.0 ('Like It Or Not') 64-bit
Writing library : libebml v1.3.6 + libmatroska v1.4.9
Cover : Yes
Attachments : cover.jpg
Writing frontend : StaxRip v1.8.2.0

Video
ID : 1
Format : HEVC
Format/Info : High Efficiency Video Coding
Format profile : Main [email protected]@Main
Codec ID : V_MPEGH/ISO/HEVC
Duration : 1 h 28 min
Bit rate : 1 806 kb/s
Width : 1 920 pixels
Height : 1 080 pixels
Display aspect ratio : 16:9
Frame rate mode : Constant
Frame rate : 23.976 (24000/1001) FPS
Color space : YUV
Chroma subsampling : 4:2:0
Bit depth : 10 bits
Bits/(Pixel*Frame) : 0.036
Stream size : 1.12 GiB (67%)
Writing library : x265 2.9+15-81373aab81df:[Windows][MSVC 1916][64 bit] 10bit
Encoding settings : cpuid=1111039 / frame-threads=3 / numa-pools=8 / wpp / no-pmode / no-pme / no-psnr / ssim / log-level=2 / input-csp=1 / input-res=1920x1080 / interlace=0 / total-frames=127158 / level-idc=0 / high-tier=1 / uhd-bd=0 / ref=4 / no-allow-non-conformance / no-repeat-headers / annexb / no-aud / no-hrd / info / hash=0 / no-temporal-layers / open-gop / min-keyint=23 / keyint=250 / gop-lookahead=0 / bframes=4 / b-adapt=2 / b-pyramid / bframe-bias=0 / rc-lookahead=25 / lookahead-slices=4 / scenecut=40 / radl=0 / no-splice / no-intra-refresh / ctu=64 / min-cu-size=8 / rect / no-amp / max-tu-size=32 / tu-inter-depth=1 / tu-intra-depth=1 / limit-tu=0 / rdoq-level=2 / dynamic-rd=0.00 / ssim-rd / signhide / no-tskip / nr-intra=0 / nr-inter=0 / no-constrained-intra / strong-intra-smoothing / max-merge=3 / limit-refs=3 / limit-modes / me=3 / subme=3 / merange=57 / temporal-mvp / weightp / no-weightb / no-analyze-src-pics / deblock=-2:-2 / sao / sao-non-deblock / rd=4 / early-skip / rskip / no-fast-intra / no-tskip-fast / no-cu-lossless / no-b-intra / no-splitrd-skip / rdpenalty=0 / psy-rd=0.00 / psy-rdoq=1.00 / no-rd-refine / no-lossless / cbqpoffs=0 / crqpoffs=0 / rc=crf / crf=21.5 / qcomp=0.60 / qpstep=4 / stats-write=0 / stats-read=0 / ipratio=1.40 / pbratio=1.30 / aq-mode=3 / aq-strength=1.00 / cutree / zone-count=0 / no-strict-cbr / qg-size=32 / no-rc-grain / qpmax=69 / qpmin=0 / no-const-vbv / sar=0 / overscan=0 / videoformat=5 / range=0 / colorprim=2 / transfer=2 / colormatrix=2 / chromaloc=0 / display-window=0 / max-cll=0,0 / min-luma=0 / max-luma=1023 / log2-max-poc-lsb=8 / vui-timing-info / vui-hrd-info / slices=1 / no-opt-qp-pps / no-opt-ref-list-length-pps / no-multi-pass-opt-rps / scenecut-bias=0.05 / no-opt-cu-delta-qp / no-aq-motion / no-hdr / no-hdr-opt / no-dhdr10-opt / no-idr-recovery-sei / analysis-reuse-level=5 / scale-factor=0 / refine-intra=0 / refine-inter=0 / refine-mv=0 / no-limit-sao / ctu-info=0 / no-lowpass-dct / refine-mv-type=0 / copy-pic=1 / max-ausize-factor=1.0 / no-dynamic-refine / no-single-sei
Default : Yes
Forced : No

Audio #1
ID : 2
Format : AAC
Format/Info : Advanced Audio Codec
Format profile : LC
Codec ID : A_AAC
Duration : 1 h 28 min
Bit rate : 411 kb/s
Channel(s) : 7 channels
Channel(s)_Original : 8 channels
Channel positions : Front: L C R, Side: L R, Back: L R, LFE
Sampling rate : 48.0 kHz
Frame rate : 46.875 FPS (1024 spf)
Compression mode : Lossy
Delay relative to video : 9 ms
Stream size : 260 MiB (15%)
Language : English
Default : No
Forced : No

Audio #2
ID : 24
Format : AAC
Format/Info : Advanced Audio Codec
Format profile : HE-AAC / LC
Codec ID : A_AAC
Duration : 1 h 28 min
Bit rate : 202 kb/s
Channel(s) : 6 channels
Channel positions : Front: L C R, Side: L R, LFE
Sampling rate : 48.0 kHz / 24.0 kHz
Frame rate : 23.438 FPS (1024 spf)
Compression mode : Lossy
Delay relative to video : 31 ms
Stream size : 128 MiB (7%)
Language : French
Default : No
Forced : No

Audio #3
ID : 25
Format : AAC
Format/Info : Advanced Audio Codec
Format profile : HE-AAC / LC
Codec ID : A_AAC
Duration : 1 h 28 min
Bit rate : 200 kb/s
Channel(s) : 6 channels
Channel positions : Front: L C R, Side: L R, LFE
Sampling rate : 48.0 kHz / 24.0 kHz
Frame rate : 23.438 FPS (1024 spf)
Compression mode : Lossy
Delay relative to video : 31 ms
Stream size : 126 MiB (7%)
Language : Spanish
Default : No
Forced : No

Audio #4
ID : 26
Format : AAC
Format/Info : Advanced Audio Codec
Format profile : HE-AAC / LC
Codec ID : A_AAC
Duration : 1 h 28 min
Bit rate : 32.8 kb/s
Channel(s) : 2 channels
Channel positions : Front: L R
Sampling rate : 48.0 kHz / 24.0 kHz
Frame rate : 23.438 FPS (1024 spf)
Compression mode : Lossy
Delay relative to video : 31 ms
Stream size : 20.8 MiB (1%)
Title : Commentary
Language : English
Default : No
Forced : No

Subtitle #1
ID : 3
Format : UTF-8
Codec ID : S_TEXT/UTF8
Codec ID/Info : UTF-8 Plain Text
Duration : 1 h 27 min
Bit rate : 56 b/s
Count of elements : 1256
Stream size : 35.8 KiB (0%)
Language : English
Default : No
Forced : No

Subtitle #2
ID : 4
Format : VobSub
Muxing mode : zlib
Codec ID : S_VOBSUB
Codec ID/Info : Picture based subtitle format used on DVDs
Duration : 1 h 27 min
Bit rate : 10.4 kb/s
Count of elements : 1330
Stream size : 6.51 MiB (0%)
Language : English
Default : No
Forced : No

Subtitle #3
ID : 5
Format : VobSub
Muxing mode : zlib
Codec ID : S_VOBSUB
Codec ID/Info : Picture based subtitle format used on DVDs
Duration : 1 h 26 min
Bit rate : 8 904 b/s
Count of elements : 1122
Stream size : 5.51 MiB (0%)
Language : French
Default : No
Forced : No

Subtitle #4
ID : 6
Format : VobSub
Muxing mode : zlib
Codec ID : S_VOBSUB
Codec ID/Info : Picture based subtitle format used on DVDs
Duration : 1 h 26 min
Bit rate : 8 186 b/s
Count of elements : 1119
Stream size : 5.07 MiB (0%)
Language : Spanish
Default : No
Forced : No

Subtitle #5
ID : 7
Format : VobSub
Muxing mode : zlib
Codec ID : S_VOBSUB
Codec ID/Info : Picture based subtitle format used on DVDs
Duration : 1 h 21 min
Bit rate : 11.2 kb/s
Count of elements : 1156
Stream size : 6.55 MiB (0%)
Language : German
Default : No
Forced : No

Subtitle #6
ID : 8
Format : VobSub
Muxing mode : zlib
Codec ID : S_VOBSUB
Codec ID/Info : Picture based subtitle format used on DVDs
Duration : 1 h 20 min
Bit rate : 6 870 b/s
Count of elements : 998
Stream size : 3.97 MiB (0%)
Language : Japanese
Default : No
Forced : No

Subtitle #7
ID : 9
Format : VobSub
Muxing mode : zlib
Codec ID : S_VOBSUB
Codec ID/Info : Picture based subtitle format used on DVDs
Duration : 1 h 26 min
Bit rate : 5 763 b/s
Count of elements : 1135
Stream size : 3.57 MiB (0%)
Language : Korean
Default : No
Forced : No

Subtitle #8
ID : 10
Format : VobSub
Muxing mode : zlib
Codec ID : S_VOBSUB
Codec ID/Info : Picture based subtitle format used on DVDs
Duration : 1 h 26 min
Bit rate : 6 070 b/s
Count of elements : 1144
Stream size : 3.76 MiB (0%)
Language : Chinese
Default : No
Forced : No

Subtitle #9
ID : 11
Format : VobSub
Muxing mode : zlib
Codec ID : S_VOBSUB
Codec ID/Info : Picture based subtitle format used on DVDs
Duration : 1 h 26 min
Bit rate : 6 604 b/s
Count of elements : 994
Stream size : 4.09 MiB (0%)
Language : Chinese
Default : No
Forced : No

Subtitle #10
ID : 12
Format : UTF-8
Codec ID : S_TEXT/UTF8
Codec ID/Info : UTF-8 Plain Text
Duration : 1 h 21 min
Bit rate : 68 b/s
Count of elements : 1088
Stream size : 41.2 KiB (0%)
Language : Arabic
Default : No
Forced : No

Subtitle #11
ID : 13
Format : UTF-8
Codec ID : S_TEXT/UTF8
Codec ID/Info : UTF-8 Plain Text
Duration : 1 h 26 min
Bit rate : 52 b/s
Count of elements : 1141
Stream size : 33.1 KiB (0%)
Language : Portuguese
Default : No
Forced : No

Subtitle #12
ID : 14
Format : UTF-8
Codec ID : S_TEXT/UTF8
Codec ID/Info : UTF-8 Plain Text
Duration : 1 h 21 min
Bit rate : 57 b/s
Count of elements : 1153
Stream size : 34.5 KiB (0%)
Language : Danish
Default : No
Forced : No

Subtitle #13
ID : 15
Format : UTF-8
Codec ID : S_TEXT/UTF8
Codec ID/Info : UTF-8 Plain Text
Duration : 1 h 21 min
Bit rate : 48 b/s
Count of elements : 889
Stream size : 28.9 KiB (0%)
Language : Dutch
Default : No
Forced : No

Subtitle #14
ID : 16
Format : UTF-8
Codec ID : S_TEXT/UTF8
Codec ID/Info : UTF-8 Plain Text
Duration : 1 h 26 min
Bit rate : 91 b/s
Count of elements : 1264
Stream size : 58.1 KiB (0%)
Language : Persian
Default : No
Forced : No

Subtitle #15
ID : 17
Format : UTF-8
Codec ID : S_TEXT/UTF8
Codec ID/Info : UTF-8 Plain Text
Duration : 1 h 19 min
Bit rate : 60 b/s
Count of elements : 1166
Stream size : 35.2 KiB (0%)
Language : Italian
Default : No
Forced : No

Subtitle #16
ID : 18
Format : UTF-8
Codec ID : S_TEXT/UTF8
Codec ID/Info : UTF-8 Plain Text
Duration : 1 h 21 min
Bit rate : 56 b/s
Count of elements : 1150
Stream size : 33.7 KiB (0%)
Language : Norwegian
Default : No
Forced : No

Subtitle #17
ID : 19
Format : UTF-8
Codec ID : S_TEXT/UTF8
Codec ID/Info : UTF-8 Plain Text
Duration : 1 h 21 min
Bit rate : 94 b/s
Count of elements : 1155
Stream size : 57.0 KiB (0%)
Language : Russian
Default : No
Forced : No

Subtitle #18
ID : 20
Format : UTF-8
Codec ID : S_TEXT/UTF8
Codec ID/Info : UTF-8 Plain Text
Duration : 1 h 20 min
Bit rate : 44 b/s
Count of elements : 1173
Stream size : 26.0 KiB (0%)
Language : Hebrew
Default : No
Forced : No

Subtitle #19
ID : 21
Format : UTF-8
Codec ID : S_TEXT/UTF8
Codec ID/Info : UTF-8 Plain Text
Duration : 1 h 19 min
Bit rate : 60 b/s
Count of elements : 1166
Stream size : 35.2 KiB (0%)
Language : Italian
Default : No
Forced : No

Subtitle #20
ID : 22
Format : UTF-8
Codec ID : S_TEXT/UTF8
Codec ID/Info : UTF-8 Plain Text
Duration : 1 h 21 min
Bit rate : 56 b/s
Count of elements : 1150
Stream size : 33.7 KiB (0%)
Language : Norwegian
Default : No
Forced : No

Subtitle #21
ID : 23
Format : UTF-8
Codec ID : S_TEXT/UTF8
Codec ID/Info : UTF-8 Plain Text
Duration : 1 h 21 min
Bit rate : 94 b/s
Count of elements : 1155
Stream size : 57.0 KiB (0%)
Language : Russian
Default : No
Forced : No

Menu
00:00:00.000 : :Chapter 1
00:04:40.071 : :Chapter 2
00:08:10.406 : :Chapter 3
00:11:28.979 : :Chapter 4
00:14:09.557 : :Chapter 5
00:17:51.028 : :Chapter 6
00:22:54.748 : :Chapter 7
00:25:36.117 : :Chapter 8
00:30:24.197 : :Chapter 9
00:35:52.150 : :Chapter 10
00:40:14.078 : :Chapter 11
00:41:14.430 : :Chapter 12
00:44:16.945 : :Chapter 13
00:48:20.564 : :Chapter 14
00:50:07.212 : :Chapter 15
00:53:14.774 : :Chapter 16
00:57:50.842 : :Chapter 17
01:00:56.569 : :Chapter 18
01:02:32.331 : :Chapter 19
01:08:49.625 : :Chapter 20
01:12:41.023 : :Chapter 21
01:16:42.306 : :Chapter 22
01:20:45.131 : :Chapter 23
01:23:23.873 : :Chapter 24



Source Information
Release:
The.Lion.King.1994.2160p.BluRay.x265.10bit.SDR.DTS-HD.MA.TrueHD.7.1.Atmos-SWTYBLZ (29.5 GB)


We have no issue with individuals posting or re-uploading our torrents on a platform we aren't on. However, if this is something you'd like to do, please do so in a 'as-is' format. We ask that you do not create a new torrent, include all descriptions you see above including the UTR logo, tags, notes and screenshots. If you'd like to become a permanent poster on a website we don't post to, feel free to get in contact with a UniTeam member.


Category:Movies > HEVC/x265
Lang:English  English
Total Size:2.43 GB
Info Hash:c483906ca5ea84c6c285a69edb813d688d839e15
Added By:UTR
Date Added:28-12-2018 10:59:04

Files

File List: 
 File Size
Encoded by JoyBell (UTR).txt2.73 kB
Featurettes/A Memior - Don Hahn.mkv100 MB
Featurettes/Bloopers and Outtakes.mkv18 MB
Featurettes/Deleted Scenes.mkv72 MB
Featurettes/Extras/A Memior - Don Hahn.mkv100 MB
Featurettes/Extras/Bloopers and Outtakes.mkv18 MB
Featurettes/Extras/Deleted Scenes.mkv72 MB
Featurettes/Extras/Making of The Lion King Live.mkv190 MB
Featurettes/Extras/The Morning Report.mkv12 MB
Featurettes/Making of The Lion King Live.mkv190 MB
Featurettes/The Morning Report.mkv12 MB
folder.jpg45.07 kB
How to play HEVC (THIS FILE).txt3.42 kB
Ninite K-Lite Codecs Unattended Silent Installer and Updater.website561.00 B
The Lion King 1994 (1080p x265 q22 S98 Joy).mkv1.67 GB



Loading...
Comments

There are currently no comments. Be the first one to write something !

Disclaimer: None of the files shown here are actually hosted or transmitted by this server. The links are provided solely by this site's users. The site moderation is also a service provided by the site's users. The administrator of this site (ettv.be) cannot be held responsible for what its users post, or any other actions of its users. You may not use this site to distribute or download any material when you do not have the legal rights to do so. It is your own responsibility to adhere to these terms.