brightburn 2019 Mindhunter yts ma 2019 once upon a time in hollywood 2019 47 meters down uncaged 2019 flatland s01e01 Angel Has Fallen hellboy 2019 the hustle 2019 Xxx angel has fallen 2019 john wick chapter 3 – parabellum 2019 2.0 (2018) spider man far from home 2019 13 reasons why snowfall s03e07 night hunter 2019 dora and the lost city of gold 2019 crawl 2019 the angry birds movie 2 2019 Hard Knocks s14e03 the lion king 2019 13 reasons why s03 etmovies the kitchen 2019 the boys scary stories to tell in the dark 2019 ettv men in black international yellowstone s02e09 aladdin midsommar 2019 marvel week etrg dark phoenix dark phoenix 2019 ready or not 2019 the outpost queen of the south s04e12 john wick arrow español reef break suits hindi good boys 2019 evo kabir singh sextuplets 2019 animal kingdom s04e13 men in black international 2019 toy story 4 2019 the secret life of pets 2 2019 annabelle comes home 2019 avengers endgame 2019 shazam 2019 queen sugar s04e10 Suits s09e06 queen of the south fast furious presents hobbs shaw 2019 yellowstone john wick 3 13 reasons why season 3 avengers endgame wwe aladdin 2019 ddr dc week men in black godzilla king of the monsters 2019 ethd 
Warning! Use a VPN When Downloading Torrents!
Your IP Address is 34.204.169.76. Location is United States
Your Internet Provider is tracking your torrent activity! Hide your IP ADDRESS with a VPN!
We strongly recommend using TrustZone to anonymize your torrenting. 30 Day Money Back Guarantee!
Try it Now!
ETTV Recommended TV Shows
The.Outpost.S02E07.HDTV.x264-LucidTV[ettv] torrent
Queen.of.the.South.S04E12.HDTV.x264-SVA[ettv] torrent
Preacher.S04E05.WEB.h264-TBS[ettv] torrent
Fear.the.Walking.Dead.S05E11.WEB.h264-TBS[ettv] torrent

ETTV Recommended SD
Hot.Air.2019.HDRip.XViD-ETRG torrent
Men in Black International.2019.BRRip.XviD.AC3-EVO[EtMovies] torrent
Jacobs Ladder.2019.HDRip.XViD-ETRG torrent
The Creatress.2019.BDRip.XviD.AC3-EVO[EtMovies] torrent

ETTV Recommended HD
Burn.2019.1080p.WEB-DL.H264.AC3-EVO[EtHD] torrent
Men.in.Black.International.2019.1080p.BluRay.x264-GECKOS[EtHD] torrent
John.Wick.Chapter.3.Parabellum.2019.1080p.AMZN.WEB-DL.DDP5.1.H.264-NTG[EtHD] torrent
Astro.Kid.2019.1080p.Bluray.x264-EVO[EtHD] torrent

ETTV Recommended UHD
Darkest Hour 2017.MULTi.UHD.Blu-ray.2160p.HDR.Atmos.7.1.HEVC-DDR torrent
Downsizing 2017.MULTi.UHD.Blu-ray.2160p.HDR..DTS-HDMA.7.1.HEVC-DDR torrent
The Shallows - Paradise Beach - Dentro L incubo (2016) [Bluray 2160p 4k UHD HDR10 HEVC Eng TrueHD Atmos 7.1 MultiLang Ac3 5.1 - Multisubs] torrent
John Wick Chapter 3 Parabellum 2019.UHD.2160p.HDR.WEB.Rip.DDP.5.1.HEVC-DDR[EtHD] torrent

ETTV Recommended Cam
Good Boys 2019 HDCAM x264 AC3-ETRG torrent
Crawl 2019 NEW HDCAM x264 AC3-ETRG torrent
Angel Has Fallen 2019 HDCAM x264 AC3-ETRG torrent
The Lion King 2019 NEW 720p HDCAM No Ads x264 AC3-SeeHD torrent

ETTV Recommended Foreign
Article.15.2019.1080p.NF.DL.H264.DDP.5.1.ESUBS.Telly torrent
No.Mercy.2019.MULTi.1080p.DTS-HDMA.5.1.HEVC-DDR[EtHD] torrent
Kobiety mafii 2 (2019)  [WEB-DL] [XviD-KiT] [Napisy PL] torrent
Kelebekler (2018) 1080p NF WEB-DL DDP5.1 H264 - TURG[EtHD] torrent


Download Torrent "Star Trek Discovery S02E04 (1080p WEBRip x265 HEVC 10bit AAC 5.1 Joy) [UTR]"

IMDB Details
Description:

N/A

Genre:

N/A

Download Torrent (Magnet)
Download Torrent (File)
Seeds: 173
Leechers: 59
Completed: 3,516 
Last Checked: 12-02-2019 15:36:45


Loading...
Details
Title:Star Trek Discovery S02E04 (1080p WEBRip x265 HEVC 10bit AAC 5.1 Joy) [UTR]
Description:
[img="https://i.postimg.cc/hjkyHjgc/pirate-shark-banner-with-forum-site-address-www-imagesplitter-n.png" alt=""][img="https://i.postimg.cc/CLHPQS2p/pirate-shark-banner-with-forum-site-address-www-imagesplitter-n.png" alt=""]
[img="https://i.postimg.cc/13vWyMPW/pirate-shark-banner-with-forum-site-address-www-imagesplitter-n.png" alt=""][img="https://i.postimg.cc/yNWLx987/pirate-shark-banner-with-forum-site-address-www-imagesplitter-n.png" alt=""]




Media Information
General
Format                                   : Matroska
Format version                           : Version 4 / Version 2
File size                                : 528 MiB
Duration                                 : 51 min 47 s
Overall bit rate                         : 1 424 kb/s
Movie name                               : Star Trek Discovery S02E04 An Obol for Charon  (1080p x265 10bit FS92 Joy)
Encoded date                             : UTC 2019-02-11 18:56:38
Writing application                      : mkvmerge v29.0.0 ('Like It Or Not') 64-bit
Writing library                          : libebml v1.3.6 + libmatroska v1.4.9
Writing frontend                         : StaxRip v2.0, Encoded by JoyBell

Video
ID                                       : 1
Format                                   : HEVC
Format/Info                              : High Efficiency Video Coding
Format profile                           : Main [email protected]@Main
Codec ID                                 : V_MPEGH/ISO/HEVC
Duration                                 : 51 min 47 s
Bit rate                                 : 1 197 kb/s
Width                                    : 1 920 pixels
Height                                   : 800 pixels
Display aspect ratio                     : 2.40:1
Frame rate mode                          : Variable
Frame rate                               : 24.000 FPS
Original frame rate                      : 24.083 FPS
Color space                              : YUV
Chroma subsampling                       : 4:2:0
Bit depth                                : 10 bits
Bits/(Pixel*Frame)                       : 0.032
Stream size                              : 443 MiB (84%)
Writing library                          : x265 2.9+15-81373aab81df:[Windows][MSVC 1916][64 bit] 10bit
Encoding settings                        : cpuid=1111039 / frame-threads=3 / numa-pools=12 / wpp / no-pmode / no-pme / no-psnr / ssim / log-level=2 / input-csp=1 / input-res=1920x800 / interlace=0 / total-frames=74573 / level-idc=0 / high-tier=1 / uhd-bd=0 / ref=4 / no-allow-non-conformance / no-repeat-headers / annexb / no-aud / no-hrd / info / hash=0 / no-temporal-layers / open-gop / min-keyint=24 / keyint=250 / gop-lookahead=0 / bframes=8 / b-adapt=2 / b-pyramid / bframe-bias=0 / rc-lookahead=80 / lookahead-slices=4 / scenecut=40 / radl=0 / no-splice / no-intra-refresh / ctu=64 / min-cu-size=8 / no-rect / no-amp / max-tu-size=32 / tu-inter-depth=1 / tu-intra-depth=1 / limit-tu=0 / rdoq-level=2 / dynamic-rd=0.00 / ssim-rd / signhide / no-tskip / nr-intra=0 / nr-inter=0 / no-constrained-intra / strong-intra-smoothing / max-merge=3 / limit-refs=3 / limit-modes / me=3 / subme=3 / merange=57 / temporal-mvp / weightp / no-weightb / no-analyze-src-pics / deblock=0:0 / sao / no-sao-non-deblock / rd=4 / no-early-skip / rskip / no-fast-intra / no-tskip-fast / no-cu-lossless / no-b-intra / no-splitrd-skip / rdpenalty=0 / psy-rd=0.00 / psy-rdoq=1.00 / no-rd-refine / no-lossless / cbqpoffs=0 / crqpoffs=0 / rc=abr / bitrate=1200 / qcomp=0.60 / qpstep=4 / stats-write=0 / stats-read=2 / cplxblur=20.0 / qblur=0.5 / ipratio=1.40 / pbratio=1.30 / aq-mode=1 / aq-strength=0.80 / cutree / zone-count=0 / no-strict-cbr / qg-size=32 / no-rc-grain / qpmax=69 / qpmin=0 / no-const-vbv / sar=0 / overscan=0 / videoformat=5 / range=0 / colorprim=2 / transfer=2 / colormatrix=1 / chromaloc=0 / display-window=0 / max-cll=0,0 / min-luma=0 / max-luma=1023 / log2-max-poc-lsb=8 / vui-timing-info / vui-hrd-info / slices=1 / no-opt-qp-pps / no-opt-ref-list-length-pps / multi-pass-opt-rps / scenecut-bias=0.05 / no-opt-cu-delta-qp / no-aq-motion / no-hdr / no-hdr-opt / no-dhdr10-opt / no-idr-recovery-sei / analysis-reuse-level=10 / scale-factor=0 / refine-intra=0 / refine-inter=0 / refine-mv=0 / limit-sao / ctu-info=0 / no-lowpass-dct / refine-mv-type=0 / copy-pic=1 / max-ausize-factor=1.0 / no-dynamic-refine / no-single-sei
Default                                  : Yes
Forced                                   : No
Color range                              : Limited
Matrix coefficients                      : BT.709

Audio
ID                                       : 2
Format                                   : AAC
Format/Info                              : Advanced Audio Codec
Format profile                           : HE-AAC / LC
Codec ID                                 : A_AAC
Duration                                 : 51 min 47 s
Bit rate                                 : 225 kb/s
Channel(s)                               : 6 channels
Channel positions                        : Front: L C R, Side: L R, LFE
Sampling rate                            : 48.0 kHz / 24.0 kHz
Frame rate                               : 23.438 FPS (1024 spf)
Compression mode                         : Lossy
Delay relative to video                  : 31 ms
Stream size                              : 83.2 MiB (16%)
Language                                 : English
Default                                  : No
Forced                                   : No

Subtitle #1
ID                                       : 3
Format                                   : UTF-8
Codec ID                                 : S_TEXT/UTF8
Codec ID/Info                            : UTF-8 Plain Text
Duration                                 : 50 min 3 s
Bit rate                                 : 82 b/s
Count of elements                        : 975
Stream size                              : 30.2 KiB (0%)
Language                                 : English
Default                                  : No
Forced                                   : No

Subtitle #2
ID                                       : 4
Format                                   : UTF-8
Codec ID                                 : S_TEXT/UTF8
Codec ID/Info                            : UTF-8 Plain Text
Duration                                 : 50 min 3 s
Bit rate                                 : 87 b/s
Count of elements                        : 1056
Stream size                              : 32.0 KiB (0%)
Language                                 : English
Default                                  : No
Forced                                   : No

Source Information
Release: Star.Trek.Discovery.S02E04.An.Obol.for.Charon.1080p.AMZN.WEBRip.DDP5.1.x264-AJP69[rarbg]  (3.58 GB)

Category:TV > HEVC/x265
Lang:English  English
Total Size:528 MB
Info Hash:6cce4b54413efb056ec5ec492373148a98c5d8ff
Added By:UTR
Date Added:12-02-2019 15:36:37

Files

File List: 
 File Size
Star Trek Discovery S02E04 An Obol for Charon (1080p x265 10bit FS92 Joy).mkv528 MB



Loading...
Comments

There are currently no comments. Be the first one to write something !

Disclaimer: None of the files shown here are actually hosted or transmitted by this server. The links are provided solely by this site's users. The site moderation is also a service provided by the site's users. The administrator of this site (ettv.be) cannot be held responsible for what its users post, or any other actions of its users. You may not use this site to distribute or download any material when you do not have the legal rights to do so. It is your own responsibility to adhere to these terms.