kgf sarkar Manikarnika star trek discovery thakrey Xxx kedarnath thackeray malayalam the accidental prime minister supernatural evo aquaman telugu odiyan the flash why cheat india great british bake off s09e10 vikings tushy 18.12 1080p.mp4-ktr charlie chaplin 2 1080P Hindi mirzapur ettv mr majnu the grand tour 2018 ita Adanga Maru Tin Star etmovies dtone uri EVO malayalam 2018 movies AQUAMAN ita Bumblebee ethd ITA zero etrg venom f2 1080p 2018 maari 2 Game Of Thrones viswasam TamilRockers Kannada simmba Kannada ddr simbha tushyraw 1080p.mp4-ktr mortal engines simba petta DTOne uri the surgical strike kung fu the legend Young justice tamil robot 2.0 it brazzers it 2017 2.0 thakre Njan Prakashan glass fgt bohemian rhapsody Star Trek Discovery S02E02 
Warning! Use a VPN When Downloading Torrents!
Your IP Address is 3.95.63.218. Location is United States
Your Internet Provider is tracking your torrent activity! Hide your IP ADDRESS with a VPN!
We strongly recommend using TrustZone to anonymize your torrenting. 30 Day Money Back Guarantee!
Try it Now!
ETTV Recommended TV Shows
DCs.Legends.of.Tomorrow.S04E12.HDTV.x264-SVA[ettv] torrent
Shadowhunters.The.Mortal.Instruments.S03E19.WEB.x264-TBS[ettv] torrent
The.Fix.2019.S01E06.HDTV.x264-KILLERS[ettv] torrent
Arrow.S07E19.HDTV.x264-SVA[ettv] torrent
Knightfall.S02E05.HDTV.x264-SHiTSPREAD[ettv] torrent
Into.the.Badlands.S03E14.WEB.h264-TBS[ettv] torrent

ETTV Recommended SD
Destroyer.2019.BRRip.XviD.AC3-EVO torrent
What.Men.Want.2019.HDRip.XviD.AC3-EVO torrent
The.Prodigy.2019.HDRip.XviD.AC3-EVO torrent
Backdraft.2.2019.HDRip.XviD.AC3-EVO torrent

ETTV Recommended HD
A Common Man AKA Death Watch 2012.1080p.BluRay.HEVC.DTS-HDMA.5.1-DDR torrent
The Hunchback of Notre Dame 1923.1080p.Blu-ray.HEVC.DD.2.0-DDR torrent
The Hunchback of Notre Dame 1939.Multi.1080p.BluRay.HEVC.DTS-HD.MA.1.0 torrent
Destroyer.2018.BluRay.1080p.HEVC.DTS-HD.MA.5.1-DDR torrent

ETTV Recommended UHD
Captain America Civil War 2016.Multi.UHD.BluRay.2160p.HDR.HEVC.Atmos.7.1-DDR torrent
The.Karate.Kid.1984.Multi.UHD.Blu-ray.2160p.HDR.HEVC.Atmos.7.1-DDR torrent
Star Wars Episode II Attack of the Clones (2002) x 1600 (2160p) SDR 5.1 x265 10bit Phun Psyz torrent
The Mayflower Voyagers 1988.2160p.UHD.BluRay.HDR.HEVC.DTS-HD.MA.5.1-DDR torrent

ETTV Recommended Cam
Mia and the White Lion 2019 720p HDCAM-1XBET torrent
Hellboy.2019.HDCAM.v2.x264.AC3-ETRG torrent
The.Curse.of.La.Llorona.2019.HDCAM.x264.AC3-ETRG torrent
Captain.Marvel.2019.HDTC.x264 AC3-ETRG torrent

ETTV Recommended Foreign
Arrest Letter.2017.1080p.WebDL.ARABIC.AVC.DD.2.0.ESub-ETRG[EtHD] torrent
Ratham (2019) 720p Hindi Dubbed HDTVRip x264 AAC 1GB - MovCr torrent
Mr. Majnu.2019.1080p.WEB-DL.AVC.AAC.ESub.DDR torrent
 [18+] Cheetah On Fire (1992) x264 720p UNRATED WEB-DL {Dual Audio} [Hindi ORG DD 2.0 + Chinese 2.0] Exclusive By DREDD torrent


Download Torrent "Roswell New Mexico S01E01 Pilot 1080p AMZN WEB-DL DDP5 1 H 265 hevc frank "

IMDB Details
Description:

N/A

Genre:

N/A

Download Torrent (Magnet)
Download Torrent (File)
Seeds: 25
Leechers: 7
Completed: 255 
Last Checked: 12-02-2019 16:36:41


Details
Title:Roswell New Mexico S01E01 Pilot 1080p AMZN WEB-DL DDP5 1 H 265 hevc frank
Description:

[table][tr][td]This image has been resized. Click this bar to view the full image.[/td]
[/tr]
[/table]

[table][tr][td][/td]
[td]This image has been resized. Click this bar to view the full image.[/td]
[/tr]
[/table]
         

    General Unique ID                                : 249897788895439276516931058408515712930 (0xBC00903F5F60A86C8ED72E3721C837A2) Complete name                            : /downloads/Roswell.New.Mexico.S01E01.Pilot.1080p.AMZN.WEB-DL.DDP5.1.H.265 hevc frank.mkv Format                                   : Matroska Format version                           : Version 4 / Version 2 File size                                : 328 MiB Duration                                 : 42 min 26 s Overall bit rate                         : 1 080 kb/s  Video ID                                       : 1 Format                                   : HEVC Format/Info                              : High Efficiency Video Coding Format profile                           : Main [email protected]@High Codec ID                                 : V_MPEGH/ISO/HEVC Duration                                 : 42 min 26 s Bit rate                                 : 707 kb/s Width                                    : 1 920 pixels Height                                   : 1 080 pixels Display aspect ratio                     : 16:9 Frame rate mode                          : Constant Frame rate                               : 23.976 (24000/1001) FPS Color space                              : YUV Chroma subsampling                       : 4:2:0 (Type 2) Bit depth                                : 10 bits Bits/(Pixel*Frame)                       : 0.014 Stream size                              : 215 MiB (65%) Writing library                          : x265 2.9+1-169e76b6bbcc:[Windows][GCC 8.2.0][64 bit] 10bit Encoding settings                        : cpuid=1111039 / frame-threads=2 / numa-pools=4 / wpp / no-pmode / no-pme / no-psnr / no-ssim / log-level=2 / input-csp=1 / input-res=1920x1080 / interlace=0 / total-frames=61046 / level-idc=51 / high-tier=1 / uhd-bd=0 / ref=3 / no-allow-non-conformance / repeat-headers / annexb / aud / hrd / info / hash=0 / no-temporal-layers / no-open-gop / min-keyint=24 / keyint=240 / gop-lookahead=0 / bframes=4 / b-adapt=0 / b-pyramid / bframe-bias=0 / rc-lookahead=15 / lookahead-slices=6 / scenecut=40 / radl=0 / no-intra-refresh / ctu=64 / min-cu-size=8 / no-rect / no-amp / max-tu-size=32 / tu-inter-depth=1 / tu-intra-depth=1 / limit-tu=0 / rdoq-level=0 / dynamic-rd=0.00 / no-ssim-rd / signhide / no-tskip / nr-intra=0 / nr-inter=0 / no-constrained-intra / no-strong-intra-smoothing / max-merge=2 / limit-refs=3 / no-limit-modes / me=1 / subme=2 / merange=57 / temporal-mvp / weightp / no-weightb / no-analyze-src-pics / deblock=3:3 / no-sao / no-sao-non-deblock / rd=2 / no-early-skip / rskip / fast-intra / no-tskip-fast / no-cu-lossless / no-b-intra / no-splitrd-skip / rdpenalty=0 / psy-rd=2.00 / psy-rdoq=0.00 / no-rd-refine / no-lossless / cbqpoffs=0 / crqpoffs=0 / rc=abr / bitrate=700 / qcomp=0.60 / qpstep=4 / stats-write=0 / stats-read=2 / cplxblur=20.0 / qblur=0.5 / vbv-maxrate=160000 / vbv-bufsize=160000 / vbv-init=0.9 / ipratio=1.40 / pbratio=1.30 / aq-mode=1 / aq-strength=1.00 / cutree / zone-count=0 / no-strict-cbr / qg-size=32 / no-rc-grain / qpmax=69 / qpmin=0 / no-const-vbv / sar=1 / overscan=0 / videoformat=5 / range=0 / colorprim=9 / transfer=16 / colormatrix=9 / chromaloc=1 / chromaloc-top=2 / chromaloc-bottom=2 / display-window=0 / max-cll=0,0 / min-luma=0 / max-luma=1023 / log2-max-poc-lsb=8 / vui-timing-info / vui-hrd-info / slices=1 / no-opt-qp-pps / no-opt-ref-list-length-pps / no-multi-pass-opt-rps / scenecut-bias=0.05 / no-opt-cu-delta-qp / no-aq-motion / hdr / hdr-opt / no-dhdr10-opt / no-idr-recovery-sei / analysis-reuse-level=5 / scale-factor=0 / refine-intra=0 / refine-inter=0 / refine-mv=0 / no-limit-sao / ctu-info=0 / no-lowpass-dct / refine-mv-type=0 / copy-pic=1 / max-ausize-factor=1.0 / no-dynamic-refine / no-single-sei Default                                  : Yes Forced                                   : No Color range                              : Limited Color primaries                          : BT.2020 Transfer characteristics                 : PQ Matrix coefficients                      : BT.2020 non-constant  Audio ID                                       : 2 Format                                   : Opus Codec ID                                 : A_OPUS Duration                                 : 42 min 26 s Bit rate                                 : 370 kb/s Channel(s)                               : 6 channels Channel positions                        : Front: L C R, Rear: L R, LFE Sampling rate                            : 48.0 kHz Frame rate                               : 50.000 FPS (960 SPF) Compression mode                         : Lossy Stream size                              : 112 MiB (34%) Language                                 : English Default                                  : Yes Forced                                   : No  Text ID                                       : 3 Format                                   : UTF-8 Codec ID                                 : S_TEXT/UTF8 Codec ID/Info                            : UTF-8 Plain Text Duration                                 : 41 min 53 s Bit rate                                 : 78 b/s Count of elements                        : 801 Stream size                              : 24.0 KiB (0%) Title                                    : SDH Language                                 : English Default                                  : No Forced                                   : No        
Category:TV > HEVC/x265
Lang:English  English
Total Size:328 MB
Info Hash:eb15be60053942b97f995b5866967b94f1ba653d
Added By:hevcfrank
Date Added:12-02-2019 16:36:37

Files

File List: 
 File Size
Roswell.New.Mexico.S01E01.Pilot.1080p.AMZN.WEB-DL.DDP5.1.H.265 hevc frank.mkv328 MB



Loading...
Comments

There are currently no comments. Be the first one to write something !

Disclaimer: None of the files shown here are actually hosted or transmitted by this server. The links are provided solely by this site's users. The site moderation is also a service provided by the site's users. The administrator of this site (ettv.be) cannot be held responsible for what its users post, or any other actions of its users. You may not use this site to distribute or download any material when you do not have the legal rights to do so. It is your own responsibility to adhere to these terms.