kgf sarkar Manikarnika star trek discovery thakrey Xxx kedarnath thackeray malayalam the accidental prime minister supernatural evo aquaman telugu odiyan the flash why cheat india great british bake off s09e10 vikings tushy 18.12 1080p.mp4-ktr charlie chaplin 2 1080P Hindi mirzapur ettv mr majnu the grand tour 2018 ita Adanga Maru Tin Star etmovies dtone uri EVO malayalam 2018 movies AQUAMAN ita Bumblebee ethd ITA zero etrg venom f2 1080p 2018 maari 2 Game Of Thrones viswasam TamilRockers Kannada simmba Kannada ddr simbha tushyraw 1080p.mp4-ktr mortal engines simba petta DTOne uri the surgical strike kung fu the legend Young justice tamil robot 2.0 it brazzers it 2017 2.0 thakre Njan Prakashan glass fgt bohemian rhapsody Star Trek Discovery S02E02 
Warning! Use a VPN When Downloading Torrents!
Your IP Address is 3.80.60.248. Location is United States
Your Internet Provider is tracking your torrent activity! Hide your IP ADDRESS with a VPN!
We strongly recommend using TrustZone to anonymize your torrenting. 30 Day Money Back Guarantee!
Try it Now!
ETTV Recommended TV Shows
True.Detective.S03E07.WEBRip.x264-PBS[ettv] torrent
Supergirl.S04E12.HDTV.x264-SVA[ettv] torrent
Madam.Secretary.S05E14.HDTV.x264-KILLERS[ettv] torrent
The.Walking.Dead.S09E10.HDTV.x264-SVA[ettv] torrent
Charmed.2018.S01E12.HDTV.x264-SVA[ettv] torrent
NCIS.Los.Angeles.S10E15.HDTV.x264-SVA[ettv] torrent

ETTV Recommended SD
Ralph Breaks the Internet.2018.BRRip.XviD.AC3-EVO[EtMovies] torrent
Mary.Queen.of.Scots.2018.BRRip.XViD.AC3-ETRG torrent
The.Possession.of.Hannah.Grace.2018.BRRip.XViD-ETRG torrent
Nightshooters 2018.BRRip.XViD-ETRG torrent

ETTV Recommended HD
Piercing.2018.BluRay.1080p.HEVC.DTS-HD.MA5.1-DTOne torrent
The.Appearance.2018.BluRay.1080p.HEVC.DTS-HD.MA5.1-DTOne torrent
You Might Be The Killer 2018.1080p.Blu-ray.HEVC.DTS-HDMA.5.1-DTOne torrent
Nightshooters.2018.1080p.Blu-ray.1080p.HEVC.DTS-HDMA.5.1-DTOne torrent

ETTV Recommended UHD
Velvet.Buzzsaw.2019.2160p.UHDRip.x265.HDR.DDP.5.1-DTOne torrent
The.Silence.of.the.Lambs.1991.2160p.UHDRip.x265.HDR.DTS-HD.MA.5.1-DTOne torrent
Robin.Hood.2018.UHD.BluRay.2160p.x265.Atmos.7.1-DTOne torrent
Big Pacific Season One 2018.2160p.UHD.BluRay.x265.SDR.FLAC.2.0-DTOne torrent

ETTV Recommended Cam
The Lego Movie 2 2019 HDCAM XViD AC3-ETRG torrent
How to Train Your Dragon 3 2018 NEW 720p HDCAM-1XBET torrent
Happy Death Day 2U.2019.HDCAM.XViD.AC3-ETRG torrent
What Men Want 2019 HDCAM x264 AC3 MP4KiNG torrent

ETTV Recommended Foreign
Aravindha Sametha Veera Raghava.2018.1080p.WebDL.AVC.AAC.ESub.DTOne torrent
Organize Isler: Sazan Sarmali 2019 1080p NF WEB-DL DD5.1 H.264-TURG[EtHD] torrent
Les salopes ou le sucre naturel de la peau 2018 1080p WEB-DL AAC5.1 H.264-v99[EtHD] torrent
Robin.Hood.2018.Multi..BluRay.1080p.HEVC.Atmos.7.1-DTOne torrent


Download Torrent "The Haunting of Hill House S01 10bit 1080p WEBRip X265 hevc frank"

IMDB Details
Description:

N/A

Genre:

N/A

Download Torrent (Magnet)
Download Torrent (File)
Seeds: 5
Leechers: 4
Completed: 68 
Last Checked: 12-02-2019 17:32:02


Details
Title:The Haunting of Hill House S01 10bit 1080p WEBRip X265 hevc frank
Description:
This image has been resized. Click this bar to view the full image.




This image has been resized. Click this bar to view the full image.







MY channels  telegram    https://t.me/joinchat/AAAAAFFTFrW9cPRGgV7-Cg

General
Unique ID                                : 227039790193539359167506365109191978703 (0xAACE45E69CBAC5D8996418E413A62ECF)
Complete name                            : /downloads/The.Haunting.of.Hill.House.S01.10bit 1080p.WEBRip.X265 hevc frank/The.Haunting.of.Hill.House.S01E01.10bit 1080p.WEBRip.X265 hevc frank.mkv
Format                                   : Matroska
Format version                           : Version 4 / Version 2
File size                                : 418 MiB
Duration                                 : 59mn 39s
Overall bit rate                         : 979 Kbps
Encoded date                             : UTC 2018-11-15 22:17:30
Writing application                      : mkvmerge v15.0.0 ('Duel with the Devil') 64-bit
Writing library                          : libebml v1.3.5 + libmatroska v1.4.5
Writing frontend                         : StaxRip v1.7.0.0

Video
ID                                       : 1
Format                                   : HEVC
Format/Info                              : High Efficiency Video Coding
Format profile                           : Main [email protected]@Main
Codec ID                                 : V_MPEGH/ISO/HEVC
Duration                                 : 59mn 39s
Bit rate                                 : 701 Kbps
Width                                    : 1 920 pixels
Height                                   : 960 pixels
Display aspect ratio                     : 2.000
Frame rate mode                          : Constant
Frame rate                               : 23.976 (24000/1001) fps
Color space                              : YUV
Chroma subsampling                       : 4:2:0
Bit depth                                : 10 bits
Bits/(Pixel*Frame)                       : 0.016
Stream size                              : 299 MiB (72%)
Writing library                          : x265 2.5+14-2718cb5dd67f:[Windows][GCC 7.1.0][64 bit] 10bit
Encoding settings                        : cpuid=1050111 / frame-threads=1 / numa-pools=2 / wpp / no-pmode / no-pme / no-psnr / no-ssim / log-level=2 / input-csp=1 / input-res=1920x960 / interlace=0 / total-frames=85824 / level-idc=62 / high-tier=1 / uhd-bd=0 / ref=3 / no-allow-non-conformance / no-repeat-headers / annexb / no-aud / no-hrd / info / hash=0 / no-temporal-layers / open-gop / min-keyint=23 / keyint=250 / bframes=4 / b-adapt=0 / b-pyramid / bframe-bias=0 / rc-lookahead=15 / lookahead-slices=6 / scenecut=40 / no-intra-refresh / ctu=64 / min-cu-size=8 / no-rect / no-amp / max-tu-size=32 / tu-inter-depth=1 / tu-intra-depth=1 / limit-tu=0 / rdoq-level=0 / dynamic-rd=0.00 / no-ssim-rd / signhide / no-tskip / nr-intra=0 / nr-inter=0 / no-constrained-intra / strong-intra-smoothing / max-merge=2 / limit-refs=3 / no-limit-modes / me=1 / subme=2 / merange=57 / temporal-mvp / weightp / no-weightb / no-analyze-src-pics / deblock=0:0 / sao / no-sao-non-deblock / rd=2 / no-early-skip / rskip / fast-intra / no-tskip-fast / no-cu-lossless / no-b-intra / no-splitrd-skip / rdpenalty=0 / psy-rd=2.00 / psy-rdoq=0.00 / no-rd-refine / analysis-reuse-mode=0 / no-lossless / cbqpoffs=0 / crqpoffs=0 / rc=abr / bitrate=700 / qcomp=0.60 / qpstep=4 / stats-write=0 / stats-read=2 / cplxblur=20.0 / qblur=0.5 / ipratio=1.40 / pbratio=1.30 / aq-mode=1 / aq-strength=1.00 / cutree / zone-count=0 / no-strict-cbr / qg-size=32 / no-rc-grain / qpmax=69 / qpmin=0 / no-const-vbv / sar=0 / overscan=0 / videoformat=5 / range=0 / colorprim=2 / transfer=2 / colormatrix=2 / chromaloc=0 / display-window=0 / max-cll=0,0 / min-luma=0 / max-luma=1023 / log2-max-poc-lsb=8 / vui-timing-info / vui-hrd-info / slices=1 / opt-qp-pps / opt-ref-list-length-pps / no-multi-pass-opt-rps / scenecut-bias=0.05 / no-opt-cu-delta-qp / no-aq-motion / no-hdr / no-hdr-opt / no-dhdr10-opt / analysis-reuse-level=5 / scale-factor=0 / refine-intra=0 / refine-inter=0 / refine-mv=0 / no-limit-sao / ctu-info=0
Default                                  : Yes
Forced                                   : No

Audio
ID                                       : 2
Format                                   : Opus
Codec ID                                 : A_OPUS
Duration                                 : 59mn 39s
Bit rate                                 : 272 Kbps
Channel(s)                               : 6 channels
Channel positions                        : Front: L C R, Rear: L R, LFE
Sampling rate                            : 48.0 KHz
Frame rate                               : 50.000 fps (960 spf)
Compression mode                         : Lossy
Stream size                              : 116 MiB (28%)
Language                                 : English
Default                                  : No
Forced                                   : No

Text #1
ID                                       : 3
Format                                   : UTF-8
Codec ID                                 : S_TEXT/UTF8
Codec ID/Info                            : UTF-8 Plain Text
Duration                                 : 58mn 7s
Bit rate                                 : 51 bps
Count of elements                        : 779
Stream size                              : 22.0 KiB (0%)
Language                                 : English
Default                                  : No
Forced                                   : No

Text #2
ID                                       : 4
Format                                   : UTF-8
Codec ID                                 : S_TEXT/UTF8
Codec ID/Info                            : UTF-8 Plain Text
Duration                                 : 58mn 7s
Bit rate                                 : 55 bps
Count of elements                        : 818
Stream size                              : 23.6 KiB (0%)
Language                                 : English
Default                                  : No
Forced                                   : No

Text #3
ID                                       : 5
Format                                   : UTF-8
Codec ID                                 : S_TEXT/UTF8
Codec ID/Info                            : UTF-8 Plain Text
Duration                                 : 58mn 20s
Bit rate                                 : 86 bps
Count of elements                        : 826
Stream size                              : 37.1 KiB (0%)
Language                                 : Arabic
Default                                  : No
Forced                                   : No

Text #4
ID                                       : 6
Format                                   : UTF-8
Codec ID                                 : S_TEXT/UTF8
Codec ID/Info                            : UTF-8 Plain Text
Duration                                 : 59mn 17s
Bit rate                                 : 43 bps
Count of elements                        : 813
Stream size                              : 18.7 KiB (0%)
Language                                 : Chinese
Default                                  : No
Forced                                   : No

Text #5
ID                                       : 7
Format                                   : UTF-8
Codec ID                                 : S_TEXT/UTF8
Codec ID/Info                            : UTF-8 Plain Text
Duration                                 : 58mn 20s
Bit rate                                 : 52 bps
Count of elements                        : 824
Stream size                              : 22.2 KiB (0%)
Language                                 : Chinese
Default                                  : No
Forced                                   : No

Text #6
ID                                       : 8
Format                                   : UTF-8
Codec ID                                 : S_TEXT/UTF8
Codec ID/Info                            : UTF-8 Plain Text
Duration                                 : 58mn 20s
Bit rate                                 : 45 bps
Count of elements                        : 798
Stream size                              : 19.4 KiB (0%)
Language                                 : Danish
Default                                  : No
Forced                                   : No

Text #7
ID                                       : 9
Format                                   : UTF-8
Codec ID                                 : S_TEXT/UTF8
Codec ID/Info                            : UTF-8 Plain Text
Duration                                 : 59mn 17s
Bit rate                                 : 45 bps
Count of elements                        : 593
Stream size                              : 19.8 KiB (0%)
Language                                 : Dutch
Default                                  : No
Forced                                   : No

Text #8
ID                                       : 10
Format                                   : UTF-8
Codec ID                                 : S_TEXT/UTF8
Codec ID/Info                            : UTF-8 Plain Text
Duration                                 : 59mn 17s
Bit rate                                 : 45 bps
Count of elements                        : 682
Stream size                              : 19.9 KiB (0%)
Language                                 : Finnish
Default                                  : No
Forced                                   : No

Text #9
ID                                       : 11
Format                                   : UTF-8
Codec ID                                 : S_TEXT/UTF8
Codec ID/Info                            : UTF-8 Plain Text
Duration                                 : 58mn 19s
Bit rate                                 : 46 bps
Count of elements                        : 753
Stream size                              : 20.1 KiB (0%)
Language                                 : French
Default                                  : No
Forced                                   : No

Text #10
ID                                       : 12
Format                                   : UTF-8
Codec ID                                 : S_TEXT/UTF8
Codec ID/Info                            : UTF-8 Plain Text
Duration                                 : 58mn 20s
Bit rate                                 : 47 bps
Count of elements                        : 821
Stream size                              : 20.5 KiB (0%)
Language                                 : German
Default                                  : No
Forced                                   : No

Text #11
ID                                       : 13
Format                                   : UTF-8
Codec ID                                 : S_TEXT/UTF8
Codec ID/Info                            : UTF-8 Plain Text
Duration                                 : 58mn 20s
Bit rate                                 : 82 bps
Count of elements                        : 801
Stream size                              : 35.1 KiB (0%)
Language                                 : Greek
Default                                  : No
Forced                                   : No

Text #12
ID                                       : 14
Format                                   : UTF-8
Codec ID                                 : S_TEXT/UTF8
Codec ID/Info                            : UTF-8 Plain Text
Duration                                 : 59mn 17s
Bit rate                                 : 85 bps
Count of elements                        : 816
Stream size                              : 37.3 KiB (0%)
Language                                 : Hebrew
Default                                  : No
Forced                                   : No

Text #13
ID                                       : 15
Format                                   : UTF-8
Codec ID                                 : S_TEXT/UTF8
Codec ID/Info                            : UTF-8 Plain Text
Duration                                 : 58mn 20s
Bit rate                                 : 46 bps
Count of elements                        : 778
Stream size                              : 19.7 KiB (0%)
Language                                 : Indonesian
Default                                  : No
Forced                                   : No

Text #14
ID                                       : 16
Format                                   : UTF-8
Codec ID                                 : S_TEXT/UTF8
Codec ID/Info                            : UTF-8 Plain Text
Duration                                 : 58mn 19s
Bit rate                                 : 52 bps
Count of elements                        : 749
Stream size                              : 22.5 KiB (0%)
Language                                 : Italian
Default                                  : No
Forced                                   : No

Text #15
ID                                       : 17
Format                                   : UTF-8
Codec ID                                 : S_TEXT/UTF8
Codec ID/Info                            : UTF-8 Plain Text
Duration                                 : 59mn 17s
Bit rate                                 : 45 bps
Count of elements                        : 747
Stream size                              : 19.8 KiB (0%)
Language                                 : Japanese
Default                                  : No
Forced                                   : No

Text #16
ID                                       : 18
Format                                   : UTF-8
Codec ID                                 : S_TEXT/UTF8
Codec ID/Info                            : UTF-8 Plain Text
Duration                                 : 59mn 17s
Bit rate                                 : 59 bps
Count of elements                        : 825
Stream size                              : 25.7 KiB (0%)
Language                                 : Korean
Default                                  : No
Forced                                   : No

Text #17
ID                                       : 19
Format                                   : UTF-8
Codec ID                                 : S_TEXT/UTF8
Codec ID/Info                            : UTF-8 Plain Text
Duration                                 : 58mn 53s
Bit rate                                 : 43 bps
Count of elements                        : 787
Stream size                              : 18.6 KiB (0%)
Language                                 : Norwegian Bokmal
Default                                  : No
Forced                                   : No

Text #18
ID                                       : 20
Format                                   : UTF-8
Codec ID                                 : S_TEXT/UTF8
Codec ID/Info                            : UTF-8 Plain Text
Duration                                 : 59mn 17s
Bit rate                                 : 43 bps
Count of elements                        : 772
Stream size                              : 18.8 KiB (0%)
Language                                 : Polish
Default                                  : No
Forced                                   : No

Text #19
ID                                       : 21
Format                                   : UTF-8
Codec ID                                 : S_TEXT/UTF8
Codec ID/Info                            : UTF-8 Plain Text
Duration                                 : 58mn 20s
Bit rate                                 : 50 bps
Count of elements                        : 786
Stream size                              : 21.4 KiB (0%)
Language                                 : Portuguese
Default                                  : No
Forced                                   : No

Text #20
ID                                       : 22
Format                                   : UTF-8
Codec ID                                 : S_TEXT/UTF8
Codec ID/Info                            : UTF-8 Plain Text
Duration                                 : 58mn 19s
Bit rate                                 : 50 bps
Count of elements                        : 764
Stream size                              : 21.7 KiB (0%)
Language                                 : Portuguese
Default                                  : No
Forced                                   : No

Text #21
ID                                       : 23
Format                                   : UTF-8
Codec ID                                 : S_TEXT/UTF8
Codec ID/Info                            : UTF-8 Plain Text
Duration                                 : 58mn 20s
Bit rate                                 : 52 bps
Count of elements                        : 796
Stream size                              : 22.2 KiB (0%)
Language                                 : Romanian
Default                                  : No
Forced                                   : No

Text #22
ID                                       : 24
Format                                   : UTF-8
Codec ID                                 : S_TEXT/UTF8
Codec ID/Info                            : UTF-8 Plain Text
Duration                                 : 59mn 18s
Bit rate                                 : 78 bps
Count of elements                        : 806
Stream size                              : 34.1 KiB (0%)
Language                                 : Russian
Default                                  : No
Forced                                   : No

Text #23
ID                                       : 25
Format                                   : UTF-8
Codec ID                                 : S_TEXT/UTF8
Codec ID/Info                            : UTF-8 Plain Text
Duration                                 : 58mn 19s
Bit rate                                 : 48 bps
Count of elements                        : 739
Stream size                              : 20.9 KiB (0%)
Language                                 : Spanish
Default                                  : No
Forced                                   : No

Text #24
ID                                       : 26
Format                                   : UTF-8
Codec ID                                 : S_TEXT/UTF8
Codec ID/Info                            : UTF-8 Plain Text
Duration                                 : 58mn 18s
Bit rate                                 : 49 bps
Count of elements                        : 749
Stream size                              : 21.2 KiB (0%)
Language                                 : Spanish
Default                                  : No
Forced                                   : No

Text #25
ID                                       : 27
Format                                   : UTF-8
Codec ID                                 : S_TEXT/UTF8
Codec ID/Info                            : UTF-8 Plain Text
Duration                                 : 58mn 20s
Bit rate                                 : 50 bps
Count of elements                        : 815
Stream size                              : 21.6 KiB (0%)
Language                                 : Swedish
Default                                  : No
Forced                                   : No

Text #26
ID                                       : 28
Format                                   : UTF-8
Codec ID                                 : S_TEXT/UTF8
Codec ID/Info                            : UTF-8 Plain Text
Duration                                 : 58mn 20s
Bit rate                                 : 125 bps
Count of elements                        : 821
Stream size                              : 53.7 KiB (0%)
Language                                 : Thai
Default                                  : No
Forced                                   : No

Text #27
ID                                       : 29
Format                                   : UTF-8
Codec ID                                 : S_TEXT/UTF8
Codec ID/Info                            : UTF-8 Plain Text
Duration                                 : 59mn 17s
Bit rate                                 : 50 bps
Count of elements                        : 768
Stream size                              : 22.1 KiB (0%)
Language                                 : Turkish
Default                                  : No
Forced                                   : No

Text #28
ID                                       : 30
Format                                   : UTF-8
Codec ID                                 : S_TEXT/UTF8
Codec ID/Info                            : UTF-8 Plain Text
Duration                                 : 58mn 20s
Bit rate                                 : 148 bps
Count of elements                        : 827
Stream size                              : 63.4 KiB (0%)
Default                                  : No
Forced                                   : No

Category:TV > TV Packs
Lang:English  English
Total Size:8.34 GB
Info Hash:29b5bae971efe31eed593dd21c8c9b2da3e02a7b
Added By:hevcfrank
Date Added:12-02-2019 17:31:55

  

Files

File List: 
 File Size
The.Haunting.of.Hill.House.S01E01.10bit 1080p.WEBRip.X265 hevc frank.mkv418 MB
The.Haunting.of.Hill.House.S01E02.10bit 1080p.WEBRip.X265 hevc frank.mkv354 MB
The.Haunting.of.Hill.House.S01E03.10bit 1080p.WEBRip.X265 hevc frank.mkv375 MB
The.Haunting.of.Hill.House.S01E04.10bit 1080p.WEBRip.X265 hevc frank.mkv367 MB
The.Haunting.of.Hill.House.S01E05.10bit 1080p.WEBRip.X265 hevc frank.mkv508 MB
The.Haunting.of.Hill.House.S01E06.10bit 1080p.WEBRip.X265 hevc frank.mkv389 MB
The.Haunting.of.Hill.House.S01E07.10bit 1080p.WEBRip.X265 hevc frank.mkv423 MB
The.Haunting.of.Hill.House.S01E08.10bit 1080p.WEBRip.X265 hevc frank.mkv294 MB
The.Haunting.of.Hill.House.S01E09.10bit 1080p.WEBRip.X265 hevc frank.mkv409 MB
The.Haunting.of.Hill.House.S01E10.10bit 1080p.WEBRip.X265 hevc frank.mkv4.88 GB



Loading...
Comments

There are currently no comments. Be the first one to write something !

Disclaimer: None of the files shown here are actually hosted or transmitted by this server. The links are provided solely by this site's users. The site moderation is also a service provided by the site's users. The administrator of this site (ettv.be) cannot be held responsible for what its users post, or any other actions of its users. You may not use this site to distribute or download any material when you do not have the legal rights to do so. It is your own responsibility to adhere to these terms.