0 shazam 2019 spider man into the spider verse 2018 game of thrones s08e06 escape room 2019 Billions avengers infinity war 2018 avengers endgame marvels agents of shield s06e02 etrg yts dumbo 2019 doom patrol john wick chapter 3 – parabellum 2019 cold pursuit 2019 game of thrones s08e05 pet sematary 2019 long shot 2019 The Big Bang Theory s12e23 the big bang theory s12e24 tushy 18.12 1080p.mp4-ktr chernobyl what men want 2019 the hustle 2019 ethd glass 2019 the curse of la llorona 2019 how to train your dragon the hidden world 2019 uglydolls 2019 the upside 2019 alita battle angel 2019 breakthrough 2019 saturday night live john wick chapter 2 2017 brightburn 2019 the intruder 2019 2.0 (2018) john wick 2014 the blacklist s06e22 ettv tushyraw 1080p.mp4-ktr killing eve bumblebee 2018 game of thrones the big bang theory pokemon detective pikachu 2019 etmovies john wick 3 extremely wicked shockingly evil and vile 2019 aladdin 2019 the mule 2018 avengers endgame 2019 ddr a madea family funeral 2019 us 2019 fighting with my family 2019 the lego movie 2 the second part 2019 the prodigy 2019 UFC ufc fight night 152 motogp hellboy 2019 game of thrones s08e04 DDR Captain marvel little 2019 Big Bang Theory game of thrones s08e03 captain marvel 2019 hindi aquaman 2018 john wick evo 
Warning! Use a VPN When Downloading Torrents!
Your IP Address is 54.226.4.91. Location is United States
Your Internet Provider is tracking your torrent activity! Hide your IP ADDRESS with a VPN!
We strongly recommend using TrustZone to anonymize your torrenting. 30 Day Money Back Guarantee!
Try it Now!
ETTV Recommended TV Shows
NCIS.Los.Angeles.S10E24.HDTV.x264-KILLERS[ettv] torrent
Supergirl.S04E22.HDTV.x264-SVA[ettv] torrent
Killing.Eve.S02E07.HDTV.x264-LucidTV[ettv] torrent
Deep.State.S02E04.WEB.h264-TBS[ettv] torrent
Charmed.2018.S01E22.WEB.h264-TBS[ettv] torrent
Game of Thrones S08E06 Final 2019.1080p.AMZN.HDrip.HEVC.DDP.5.1-DDR torrent

ETTV Recommended SD
The.Siren.2019.HDRip.XViD-ETRG torrent
Fourth Quarter.2018.HDRip.XViD-ETRG torrent
Rottentail.2018.BDRip.XviD.AC3-EVO torrent
A Madea Family Funeral.2019.HDRip.XviD.AC3-EVO torrent

ETTV Recommended HD
Lancaster.Skies.2019.1080p.BluRay.x264-EiDER[EtHD] torrent
Dark.Was.the.Night.2018.1080p.BluRay.x264-CAPRiCORN[EtHD] torrent
A Madea Family Funeral.2019.1080p.WEB-DL.H264.AC3-EVO[EtHD] torrent
Gone Girl 2014.1080p.Blu-Ray.MHD.X264.DD.5.1-DDR torrent

ETTV Recommended UHD
The Bridge on The River Kwai 1957.UHD.Blu-ray.1080.HDR.Atmos.7.1-DDR torrent
Crank 2006.UHD.BluRay.2160p.HDR.HEVC.Atmos.7.1-DDR torrent
Aquaman 2018 1080p BDrip  x265 7.1 TrueHD Atmos D0ct0rLew[SEV] torrent
Field of Dreams 1989.Multi.UHD.2160p.Blu-ray.HDR.HEVC.DTS-HDMA.5.1-DDR torrent

ETTV Recommended Cam
Brightburn 2019 HDCAM x264 AC3-ETRG torrent
The Hustle 2019 HDCAM x264 AC3 ETRG torrent
Pokemon  Detective Pikachu 2019 HDCAM x264 AC3-ETRG torrent
John Wick 3 2019 HDCAM x264 -ETRG torrent

ETTV Recommended Foreign
The.Painted.House.aka.Chaayam.Poosiya.Veedu.2015.1080p.NF.Malayalam.WEB-DL.H264-ETRG[EtHD] torrent
Warda.2014.1080p.WEB-DL.ARABIC.ESub-ETRG[EtHD] torrent
Hotel Milan.2018.1080p.WEB-DL.AVC.AAC.ESub.DDR torrent
Gordy (1995) 720p WEB-DL x264 Eng Subs [Dual Audio] [Hindi DD 2.0 - English 2.0] Exclusive By -=!Dr.STAR!=- torrent


Download Torrent "Pokemon the Movie - The Power of Us (2018) DUBBED 1080p BDRip x265 AAC 5.1 ..."

IMDB Details
Description:

Ash meets five residents who come together to save the day when a series of threats endanger the annual Wind Festival and the entire population of their home, Fula City

Genre:

Animation, Action, Adventure, Family, Fantasy

Download Torrent (Magnet)
Download Torrent (File)
Seeds: 65
Leechers: 155
Completed: 249 
Last Checked: 10-03-2019 06:30:46


Loading...
Details
Title:Pokemon the Movie - The Power of Us (2018) DUBBED 1080p BDRip x265 AAC 5.1 ...
Description:




Screenshots
Source




Encode




Media Information

Unique ID                                : 97101448223500586283181589309590740729 (0x490D0F05807550DDA0AF612C06F61EF9)
Complete name                            : Pokemon the Movie - The Power of Us (2018) DUBBED 1080p BDRip x265 AAC 5.1 Goki [SEV].mkv
Format                                   : Matroska
Format version                           : Version 4
File size                                : 2.50 GiB
Duration                                 : 1 h 37 min
Overall bit rate                         : 3 678 kb/s
Movie name                               : Pokemon the Movie - The Power of Us (2018) DUBBED 1080p BDRip x265 AAC 5.1 Goki [SEV]
Encoded date                             : UTC 2019-03-10 06:08:26
Writing application                      : mkvmerge v28.2.0 ('The Awakening') 64-bit
Writing library                          : libebml v1.3.6 + libmatroska v1.4.9

Video
ID                                       : 1
Format                                   : HEVC
Format/Info                              : High Efficiency Video Coding
Format profile                           : Main [email protected]@Main
Codec ID                                 : V_MPEGH/ISO/HEVC
Duration                                 : 1 h 37 min
Bit rate                                 : 3 187 kb/s
Width                                    : 1 920 pixels
Height                                   : 1 080 pixels
Display aspect ratio                     : 16:9
Frame rate mode                          : Constant
Frame rate                               : 23.976 (24000/1001) FPS
Color space                              : YUV
Chroma subsampling                       : 4:2:0
Bit depth                                : 10 bits
Bits/(Pixel*Frame)                       : 0.064
Stream size                              : 2.17 GiB (87%)
Writing library                          : x265 2.9+8-27d8424c799d:[Windows][MSVC 1915][64 bit] 10bit
Encoding settings                        : cpuid=1111039 / frame-threads=2 / numa-pools=4 / wpp / no-pmode / no-pme / no-psnr / no-ssim / log-level=2 / input-csp=1 / input-res=1920x1080 / interlace=0 / total-frames=0 / level-idc=0 / high-tier=1 / uhd-bd=0 / ref=4 / no-allow-non-conformance / no-repeat-headers / annexb / no-aud / no-hrd / info / hash=0 / no-temporal-layers / open-gop / min-keyint=23 / keyint=250 / gop-lookahead=0 / bframes=8 / b-adapt=2 / b-pyramid / bframe-bias=0 / rc-lookahead=100 / lookahead-slices=4 / scenecut=40 / radl=0 / no-intra-refresh / ctu=64 / min-cu-size=8 / no-rect / no-amp / max-tu-size=32 / tu-inter-depth=2 / tu-intra-depth=2 / limit-tu=4 / rdoq-level=2 / dynamic-rd=0.00 / no-ssim-rd / signhide / no-tskip / nr-intra=0 / nr-inter=0 / no-constrained-intra / no-strong-intra-smoothing / max-merge=3 / limit-refs=2 / limit-modes / me=3 / subme=5 / merange=57 / temporal-mvp / weightp / weightb / no-analyze-src-pics / deblock=0:0 / sao / no-sao-non-deblock / rd=6 / no-early-skip / rskip / no-fast-intra / no-tskip-fast / no-cu-lossless / b-intra / no-splitrd-skip / rdpenalty=0 / psy-rd=1.30 / psy-rdoq=2.00 / no-rd-refine / no-lossless / cbqpoffs=0 / crqpoffs=0 / rc=crf / crf=18.0 / qcomp=0.60 / qpstep=4 / stats-write=0 / stats-read=0 / ipratio=1.40 / pbratio=1.30 / aq-mode=2 / aq-strength=1.10 / cutree / zone-count=0 / no-strict-cbr / qg-size=32 / no-rc-grain / qpmax=69 / qpmin=0 / no-const-vbv / sar=1 / overscan=0 / videoformat=5 / range=0 / colorprim=2 / transfer=2 / colormatrix=2 / chromaloc=0 / display-window=0 / max-cll=0,0 / min-luma=0 / max-luma=1023 / log2-max-poc-lsb=8 / vui-timing-info / vui-hrd-info / slices=1 / no-opt-qp-pps / no-opt-ref-list-length-pps / no-multi-pass-opt-rps / scenecut-bias=0.05 / no-opt-cu-delta-qp / no-aq-motion / no-hdr / no-hdr-opt / no-dhdr10-opt / no-idr-recovery-sei / analysis-reuse-level=5 / scale-factor=0 / refine-intra=0 / refine-inter=0 / refine-mv=0 / no-limit-sao / ctu-info=0 / no-lowpass-dct / refine-mv-type=0 / copy-pic=1 / max-ausize-factor=1.0 / no-dynamic-refine / no-single-sei
Language                                 : English
Default                                  : Yes
Forced                                   : No

Audio
ID                                       : 2
Format                                   : AAC LC
Format/Info                              : Advanced Audio Codec Low Complexity
Codec ID                                 : A_AAC-2
Duration                                 : 1 h 37 min
Bit rate                                 : 448 kb/s
Channel(s)                               : 6 channels
Channel layout                           : C L R Ls Rs LFE
Sampling rate                            : 48.0 kHz
Frame rate                               : 46.875 FPS (1024 SPF)
Compression mode                         : Lossy
Delay relative to video                  : 9 ms
Stream size                              : 312 MiB (12%)
Title                                    : English AAC 5.1
Language                                 : English
Default                                  : Yes
Forced                                   : No

Text
ID                                       : 3
Format                                   : PGS
Codec ID                                 : S_HDMV/PGS
Codec ID/Info                            : Picture based subtitle format used on BDs/HD-DVDs
Duration                                 : 1 h 37 min
Bit rate                                 : 40.7 kb/s
Count of elements                        : 2964
Stream size                              : 28.3 MiB (1%)
Title                                    : English PGS
Language                                 : English
Default                                  : No
Forced                                   : No

Menu #1
00:00:00.000                             : en:Chapter 01
00:03:19.199                             : en:Chapter 02
00:10:52.610                             : en:Chapter 03
00:22:02.112                             : en:Chapter 04
00:35:40.471                             : en:Chapter 05
00:47:30.973                             : en:Chapter 06
01:02:32.081                             : en:Chapter 07
01:11:37.626                             : en:Chapter 08
01:16:53.734                             : en:Chapter 09
01:23:48.940                             : en:Chapter 10
01:30:17.578                             : en:Chapter 11
01:32:16.739                             : en:Chapter 12

Source Media Information

Unique ID                                : 241076649665774625092749857776737435712 (0xB55DAC8153EF1BDED26E90E1290FC040)
Complete name                            : Pokemon.the.Movie.The.Power.of.Us.2018.DUBBED.1080p.BluRay.REMUX.AVC.DTS-HD.MA.5.1-FGT.mkv
Format                                   : Matroska
Format version                           : Version 4
File size                                : 27.9 GiB
Duration                                 : 1 h 37 min
Overall bit rate mode                    : Variable
Overall bit rate                         : 40.9 Mb/s
Movie name                               : Pokemon.the.Movie.The.Power.of.Us.2018.DUBBED.1080p.BluRay.REMUX.AVC.DTS-HD.MA.5.1-FGT
Encoded date                             : UTC 2019-03-01 12:01:23
Writing application                      : mkvmerge v31.0.0 ('Dolores In A Shoestand') 64-bit
Writing library                          : libebml v1.3.6 + libmatroska v1.4.9
Cover                                    : Yes
Attachments                              : cover_land.jpg / small_cover.jpg / small_cover_land.jpg / cover.jpg

Video
ID                                       : 1
Format                                   : AVC
Format/Info                              : Advanced Video Codec
Format profile                           : [email protected]
Format settings                          : CABAC / 4 Ref Frames
Format settings, CABAC                   : Yes
Format settings, RefFrames               : 4 frames
Codec ID                                 : V_MPEG4/ISO/AVC
Duration                                 : 1 h 37 min
Bit rate mode                            : Variable
Bit rate                                 : 33.4 Mb/s
Maximum bit rate                         : 38.0 Mb/s
Width                                    : 1 920 pixels
Height                                   : 1 080 pixels
Display aspect ratio                     : 16:9
Frame rate mode                          : Constant
Frame rate                               : 23.976 (24000/1001) FPS
Color space                              : YUV
Chroma subsampling                       : 4:2:0
Bit depth                                : 8 bits
Scan type                                : Progressive
Bits/(Pixel*Frame)                       : 0.672
Stream size                              : 22.7 GiB (82%)
Title                                    : Pokemon.the.Movie.The.Power.of.Us.2018.DUBBED.1080p.BluRay.REMUX.AVC.DTS-HD.MA.5.1-FGT
Language                                 : English
Default                                  : No
Forced                                   : No

Audio #1
ID                                       : 2
Format                                   : DTS XLL
Format/Info                              : Digital Theater Systems
Commercial name                          : DTS-HD Master Audio
Codec ID                                 : A_DTS
Duration                                 : 1 h 37 min
Bit rate mode                            : Variable
Bit rate                                 : 3 700 kb/s
Channel(s)                               : 6 channels
Channel layout                           : C L R Ls Rs LFE
Sampling rate                            : 48.0 kHz
Frame rate                               : 93.750 FPS (512 SPF)
Bit depth                                : 24 bits
Compression mode                         : Lossless
Stream size                              : 2.52 GiB (9%)
Title                                    : Pokemon.the.Movie.The.Power.of.Us.2018.DUBBED.1080p.BluRay.REMUX.AVC.DTS-HD.MA.5.1-FGT
Language                                 : English
Default                                  : Yes
Forced                                   : No

Audio #2
ID                                       : 3
Format                                   : DTS
Format/Info                              : Digital Theater Systems
Codec ID                                 : A_DTS
Duration                                 : 1 h 37 min
Bit rate mode                            : Constant
Bit rate                                 : 1 509 kb/s
Channel(s)                               : 6 channels
Channel layout                           : C L R Ls Rs LFE
Sampling rate                            : 48.0 kHz
Frame rate                               : 93.750 FPS (512 SPF)
Bit depth                                : 24 bits
Compression mode                         : Lossy
Stream size                              : 1.03 GiB (4%)
Title                                    : Pokemon.the.Movie.The.Power.of.Us.2018.DUBBED.1080p.BluRay.REMUX.AVC.DTS-HD.MA.5.1-FGT
Language                                 : English
Default                                  : No
Forced                                   : No

Audio #3
ID                                       : 4
Format                                   : PCM
Format settings                          : Little / Signed
Codec ID                                 : A_PCM/INT/LIT
Duration                                 : 1 h 37 min
Bit rate mode                            : Constant
Bit rate                                 : 2 304 kb/s
Channel(s)                               : 2 channels
Sampling rate                            : 48.0 kHz
Frame rate                               : 30.000 FPS (1600 SPF)
Bit depth                                : 24 bits
Stream size                              : 1.57 GiB (6%)
Title                                    : Pokemon.the.Movie.The.Power.of.Us.2018.DUBBED.1080p.BluRay.REMUX.AVC.DTS-HD.MA.5.1-FGT
Language                                 : English
Default                                  : No
Forced                                   : No

Text
ID                                       : 5
Format                                   : PGS
Muxing mode                              : zlib
Codec ID                                 : S_HDMV/PGS
Codec ID/Info                            : Picture based subtitle format used on BDs/HD-DVDs
Duration                                 : 1 h 37 min
Bit rate                                 : 40.7 kb/s
Count of elements                        : 2964
Stream size                              : 28.3 MiB (0%)
Title                                    : English-PGS
Language                                 : English
Default                                  : Yes
Forced                                   : No

Menu
00:00:00.000                             : en:Chapter 01
00:03:19.199                             : en:Chapter 02
00:10:52.610                             : en:Chapter 03
00:22:02.112                             : en:Chapter 04
00:35:40.471                             : en:Chapter 05
00:47:30.973                             : en:Chapter 06
01:02:32.081                             : en:Chapter 07
01:11:37.626                             : en:Chapter 08
01:16:53.734                             : en:Chapter 09
01:23:48.940                             : en:Chapter 10
01:30:17.578                             : en:Chapter 11
01:32:16.739                             : en:Chapter 12


We have no issue with individuals posting or re-uploading our torrents on a platform we aren't on. However, if this is something you'd like to do, please do so in a 'as-is' format. We ask that you do not create a new torrent, include all descriptions you see above including the SEV logo, tags, notes and screenshots. If you'd like to become a permanent poster on a website we don't post to, feel free to get in contact with a Sublime Encoded Video member.


We are recruiting/training new members for SEV & seedbox providers as well as people to help out with subtitles.
As you already know, we deliver quality, so you know the standard.
If you're interested, feel free to contact any of the team members.

Category:Anime > Dubbed/Subbed
Lang:English  English
Total Size:2.50 GB
Info Hash:65714bb888d8b5756a6c388a431febe3ae9dfedb
Added By:Goki
Date Added:10-03-2019 06:30:43

Files

File List: 
 File Size
Pokemon the Movie - The Power of Us (2018) DUBBED 1080p BDRip x265 AAC 5.1 Goki [SEV]-clearlogo.png136.64 kB
Pokemon the Movie - The Power of Us (2018) DUBBED 1080p BDRip x265 AAC 5.1 Goki [SEV]-fanart.jpg138.10 kB
Pokemon the Movie - The Power of Us (2018) DUBBED 1080p BDRip x265 AAC 5.1 Goki [SEV]-logo.png136.64 kB
Pokemon the Movie - The Power of Us (2018) DUBBED 1080p BDRip x265 AAC 5.1 Goki [SEV]-poster.jpg186.86 kB
Pokemon the Movie - The Power of Us (2018) DUBBED 1080p BDRip x265 AAC 5.1 Goki [SEV].mkv2.50 GB
Pokemon the Movie - The Power of Us (2018) DUBBED 1080p BDRip x265 AAC 5.1 Goki [SEV].nfo4.74 kB



Loading...
Comments

There are currently no comments. Be the first one to write something !

Disclaimer: None of the files shown here are actually hosted or transmitted by this server. The links are provided solely by this site's users. The site moderation is also a service provided by the site's users. The administrator of this site (ettv.be) cannot be held responsible for what its users post, or any other actions of its users. You may not use this site to distribute or download any material when you do not have the legal rights to do so. It is your own responsibility to adhere to these terms.