kgf sarkar Manikarnika star trek discovery thakrey Xxx kedarnath thackeray malayalam the accidental prime minister supernatural evo aquaman telugu odiyan the flash why cheat india great british bake off s09e10 vikings tushy 18.12 1080p.mp4-ktr charlie chaplin 2 1080P Hindi mirzapur ettv mr majnu the grand tour 2018 ita Adanga Maru Tin Star etmovies dtone uri EVO malayalam 2018 movies AQUAMAN ita Bumblebee ethd ITA zero etrg venom f2 1080p 2018 maari 2 Game Of Thrones viswasam TamilRockers Kannada simmba Kannada ddr simbha tushyraw 1080p.mp4-ktr mortal engines simba petta DTOne uri the surgical strike kung fu the legend Young justice tamil robot 2.0 it brazzers it 2017 2.0 thakre Njan Prakashan glass fgt bohemian rhapsody Star Trek Discovery S02E02 
Warning! Use a VPN When Downloading Torrents!
Your IP Address is 52.201.27.211. Location is United States
Your Internet Provider is tracking your torrent activity! Hide your IP ADDRESS with a VPN!
We strongly recommend using TrustZone to anonymize your torrenting. 30 Day Money Back Guarantee!
Try it Now!
ETTV Recommended TV Shows
Doom.Patrol.S01E06.WEBRip.x264-PBS[ettv] torrent
The.Blacklist.S06E12.HDTV.x264-SVA[ettv] torrent
Blindspot.S04E16.HDTV.x264-KILLERS[ettv] torrent
Proven.Innocent.S01E06.WEB.x264-TBS[ettv] torrent
Strike.Back.S07E09.WEBRip.x264-SHiTSPREAD[ettv] torrent
Bellator 218 Sanchez vs Karakhanyan 2 HDTV x264-Star [TJET] torrent

ETTV Recommended SD
Triple.Threat.2019.HDRip.XViD-ETRG torrent
Muse.2019.HDRip.XviD.AC3-EVO torrent
Bumblebee.2018.BDRip.XviD.AC3-EVO torrent
The.Dirt.2019.HDRip.XviD.AC3-EVO torrent

ETTV Recommended HD
A.Dogs.Way.Home.2019.720p.HC.HDRip.x264.AC3-ETRG torrent
The Quake 2018.MULTi.Blu-ray.1080p.HEVC.DTS-TrueHD.5.1-DDR torrent
Big.Kill.2018.BluRay.1080p.HEVC.DTS-HDMA.5.1-DDR torrent
Bumblebee.2018.1080p.BluRay.x264-SPARKS[EtHD] torrent

ETTV Recommended UHD
Looper.2012.2160p.UHDrip.HEVC.DTS-HDMA.5.1-DDR torrent
The Mule 2018.MULTi.UHD.2160p.Blu-ray.HEVC.HDR.DTS-HDMA.5.1-DDR torrent
Mad.Max.1979.2160p.HDR.UHDrip.HEVC.DTS-HDMA.5.1-DDR torrent
Pet Sematary 1989.Multi.2160p.Blu-ray.HEVC.HDR.DTS-HDMA.5.1-DDR torrent

ETTV Recommended Cam
Captive State 2019.HDCAM.x264.AC3-ETRG torrent
Wonder Park 2019 HDCAM x264 AC3-ETRG torrent
Alita.Battle.Angel.2019.HDTS x264.AC3-ETRG torrent
US.2019.720p.HDCAM.x264.AC3-ETRG torrent

ETTV Recommended Foreign
Manikarnika (2019) 1080p Amzn Web-DL AVC DDP 5.1[Hi+Ta+Te]-DDR-ExClusive] torrent
Manojder Adbhut Bari 2018 Bengali.720p DvDRip x264 LPCM 2.0-DDR torrent
Picket 43 (2019) 720p Hindi Dubbed WEBHD x264 AAC 400MB [MovCr] torrent
Kesari.2019.1CD.pDVD.Rip.XviD.MP3.Dus torrent


Download Torrent "Howl's Moving Castle (2004) 1080p BDRip x265 AAC 5.1 Goki [SEV]"

IMDB Details
Description:

N/A

Genre:

N/A

Download Torrent (Magnet)
Download Torrent (File)
Seeds: 36
Leechers: 93
Completed: 50 
Last Checked: 10-03-2019 09:39:27


Loading...
Details
Title:Howl's Moving Castle (2004) 1080p BDRip x265 AAC 5.1 Goki [SEV]
Description:




Screenshots
Source


Encode



Media Information

Unique ID                                : 258548645980062950741570588610594489852 (0xC282A86E95805E3008BFFF0D7F9245FC)
Complete name                            : Howl's Moving Castle (2004) 1080p BDRip x265 AAC 5.1 Goki [SEV].mkv
Format                                   : Matroska
Format version                           : Version 4
File size                                : 8.20 GiB
Duration                                 : 1 h 59 min
Overall bit rate                         : 9 860 kb/s
Movie name                               : Howl's Moving Castle (2004) 1080p BDRip x265 AAC 5.1 Goki [SEV
Encoded date                             : UTC 2019-03-10 09:05:15
Writing application                      : mkvmerge v28.2.0 ('The Awakening') 64-bit
Writing library                          : libebml v1.3.6 + libmatroska v1.4.9

Video
ID                                       : 1
Format                                   : HEVC
Format/Info                              : High Efficiency Video Coding
Format profile                           : Main [email protected]@Main
Codec ID                                 : V_MPEGH/ISO/HEVC
Duration                                 : 1 h 59 min
Bit rate                                 : 8 932 kb/s
Width                                    : 1 920 pixels
Height                                   : 1 080 pixels
Display aspect ratio                     : 16:9
Frame rate mode                          : Constant
Frame rate                               : 23.976 (23976/1000) FPS
Color space                              : YUV
Chroma subsampling                       : 4:2:0
Bit depth                                : 10 bits
Bits/(Pixel*Frame)                       : 0.180
Stream size                              : 7.43 GiB (91%)
Writing library                          : x265 2.9+8-27d8424c799d:[Windows][MSVC 1915][64 bit] 10bit
Encoding settings                        : cpuid=1111039 / frame-threads=2 / numa-pools=4 / wpp / no-pmode / no-pme / no-psnr / no-ssim / log-level=2 / input-csp=1 / input-res=1920x1080 / interlace=0 / total-frames=171613 / level-idc=0 / high-tier=1 / uhd-bd=0 / ref=4 / no-allow-non-conformance / no-repeat-headers / annexb / no-aud / no-hrd / info / hash=0 / no-temporal-layers / open-gop / min-keyint=23 / keyint=250 / gop-lookahead=0 / bframes=8 / b-adapt=2 / b-pyramid / bframe-bias=0 / rc-lookahead=100 / lookahead-slices=4 / scenecut=40 / radl=0 / no-intra-refresh / ctu=64 / min-cu-size=8 / no-rect / no-amp / max-tu-size=32 / tu-inter-depth=2 / tu-intra-depth=2 / limit-tu=4 / rdoq-level=2 / dynamic-rd=0.00 / no-ssim-rd / signhide / no-tskip / nr-intra=0 / nr-inter=0 / no-constrained-intra / no-strong-intra-smoothing / max-merge=3 / limit-refs=2 / limit-modes / me=3 / subme=5 / merange=57 / temporal-mvp / weightp / weightb / no-analyze-src-pics / deblock=0:0 / sao / no-sao-non-deblock / rd=6 / no-early-skip / rskip / no-fast-intra / no-tskip-fast / no-cu-lossless / b-intra / no-splitrd-skip / rdpenalty=0 / psy-rd=1.30 / psy-rdoq=2.00 / no-rd-refine / no-lossless / cbqpoffs=0 / crqpoffs=0 / rc=crf / crf=16.4 / qcomp=0.60 / qpstep=4 / stats-write=0 / stats-read=0 / ipratio=1.40 / pbratio=1.30 / aq-mode=2 / aq-strength=1.10 / cutree / zone-count=0 / no-strict-cbr / qg-size=32 / no-rc-grain / qpmax=69 / qpmin=0 / no-const-vbv / sar=1 / overscan=0 / videoformat=5 / range=0 / colorprim=2 / transfer=2 / colormatrix=2 / chromaloc=0 / display-window=0 / max-cll=0,0 / min-luma=0 / max-luma=1023 / log2-max-poc-lsb=8 / vui-timing-info / vui-hrd-info / slices=1 / no-opt-qp-pps / no-opt-ref-list-length-pps / no-multi-pass-opt-rps / scenecut-bias=0.05 / no-opt-cu-delta-qp / no-aq-motion / no-hdr / no-hdr-opt / no-dhdr10-opt / no-idr-recovery-sei / analysis-reuse-level=5 / scale-factor=0 / refine-intra=0 / refine-inter=0 / refine-mv=0 / no-limit-sao / ctu-info=0 / no-lowpass-dct / refine-mv-type=0 / copy-pic=1 / max-ausize-factor=1.0 / no-dynamic-refine / no-single-sei
Language                                 : English
Default                                  : Yes
Forced                                   : No

Audio #1
ID                                       : 2
Format                                   : AAC LC
Format/Info                              : Advanced Audio Codec Low Complexity
Codec ID                                 : A_AAC-2
Duration                                 : 1 h 59 min
Bit rate                                 : 448 kb/s
Channel(s)                               : 6 channels
Channel layout                           : C L R Ls Rs LFE
Sampling rate                            : 48.0 kHz
Frame rate                               : 46.875 FPS (1024 SPF)
Compression mode                         : Lossy
Delay relative to video                  : 9 ms
Stream size                              : 382 MiB (5%)
Title                                    : English  AAC 5.1
Language                                 : English
Default                                  : Yes
Forced                                   : No

Audio #2
ID                                       : 3
Format                                   : AAC LC
Format/Info                              : Advanced Audio Codec Low Complexity
Codec ID                                 : A_AAC-2
Duration                                 : 1 h 59 min
Bit rate                                 : 448 kb/s
Channel(s)                               : 6 channels
Channel layout                           : C L R Ls Rs LFE
Sampling rate                            : 48.0 kHz
Frame rate                               : 46.875 FPS (1024 SPF)
Compression mode                         : Lossy
Delay relative to video                  : 9 ms
Stream size                              : 382 MiB (5%)
Title                                    : Japanese AAC 5.1
Language                                 : Japanese
Default                                  : No
Forced                                   : No

Text #1
ID                                       : 4
Format                                   : UTF-8
Codec ID                                 : S_TEXT/UTF8
Codec ID/Info                            : UTF-8 Plain Text
Duration                                 : 1 h 58 min
Bit rate                                 : 37 b/s
Count of elements                        : 1162
Stream size                              : 32.4 KiB (0%)
Title                                    : English SRT BlazeSeven(SEV)
Language                                 : English
Default                                  : No
Forced                                   : No

Text #2
ID                                       : 5
Format                                   : PGS
Codec ID                                 : S_HDMV/PGS
Codec ID/Info                            : Picture based subtitle format used on BDs/HD-DVDs
Duration                                 : 1 h 58 min
Bit rate                                 : 29.2 kb/s
Count of elements                        : 2285
Stream size                              : 24.8 MiB (0%)
Title                                    : English PGS
Language                                 : English
Default                                  : No
Forced                                   : No

Menu
00:00:00.000                             : en:Chapter 01
00:01:03.396                             : en:Chapter 02
00:04:52.542                             : en:Chapter 03
00:12:22.658                             : en:Chapter 04
00:18:22.392                             : en:Chapter 05
00:23:16.269                             : en:Chapter 06
00:28:51.438                             : en:Chapter 07
00:33:13.282                             : en:Chapter 08
00:40:09.740                             : en:Chapter 09
00:45:23.345                             : en:Chapter 10
00:49:15.327                             : en:Chapter 11
00:55:18.315                             : en:Chapter 12
00:58:32.008                             : en:Chapter 13
01:04:50.595                             : en:Chapter 14
01:10:53.207                             : en:Chapter 15
01:15:23.477                             : en:Chapter 16
01:20:24.986                             : en:Chapter 17
01:25:16.986                             : en:Chapter 18
01:32:30.378                             : en:Chapter 19
01:38:33.824                             : en:Chapter 20
01:44:22.005                             : en:Chapter 21
01:48:19.993                             : en:Chapter 22
01:52:18.982                             : en:Chapter 23
01:54:38.538                             : en:Chapter 24


Source Media Information

Unique ID                                : 326172838576617674279518479965920794993 (0xF5629A8B2B3E6C5875999B3048199971)
Complete name                            : Howl's Moving Castle (2004)[1080p.BluRay.REMUX.AVC.DTS-HD.MA.DTS]Goki.mkv
Format                                   : Matroska
Format version                           : Version 2
File size                                : 25.6 GiB
Duration                                 : 1 h 59 min
Overall bit rate mode                    : Variable
Overall bit rate                         : 30.7 Mb/s
Movie name                               : Howl's Moving Castle
Encoded date                             : UTC 2018-11-24 01:36:00
Writing application                      : MakeMKV v1.14.1 win(x64-release)
Writing library                          : libmakemkv v1.14.1 (1.3.5/1.4.7) win(x64-release)

Video
ID                                       : 1
ID in the original source medium         : 4113 (0x1011)
Format                                   : AVC
Format/Info                              : Advanced Video Codec
Format profile                           : [email protected]
Format settings                          : CABAC / 4 Ref Frames
Format settings, CABAC                   : Yes
Format settings, RefFrames               : 4 frames
Codec ID                                 : V_MPEG4/ISO/AVC
Duration                                 : 1 h 59 min
Bit rate mode                            : Variable
Bit rate                                 : 23.2 Mb/s
Maximum bit rate                         : 30.0 Mb/s
Width                                    : 1 920 pixels
Height                                   : 1 080 pixels
Display aspect ratio                     : 1.85:1
Frame rate mode                          : Constant
Frame rate                               : 23.976 (24000/1001) FPS
Standard                                 : NTSC
Color space                              : YUV
Chroma subsampling                       : 4:2:0
Bit depth                                : 8 bits
Scan type                                : Progressive
Bits/(Pixel*Frame)                       : 0.467
Stream size                              : 19.3 GiB (76%)
Language                                 : English
Default                                  : No
Forced                                   : No
Color range                              : Limited
Color primaries                          : BT.709
Transfer characteristics                 : BT.709
Matrix coefficients                      : BT.709
Original source medium                   : Blu-ray

Audio #1
ID                                       : 2
Format                                   : DTS XLL
Format/Info                              : Digital Theater Systems
Commercial name                          : DTS-HD Master Audio
Codec ID                                 : A_DTS
Duration                                 : 1 h 59 min
Bit rate mode                            : Variable
Bit rate                                 : 2 299 kb/s
Channel(s)                               : 6 channels
Channel layout                           : C L R Ls Rs LFE
Sampling rate                            : 48.0 kHz
Frame rate                               : 93.750 FPS (512 SPF)
Bit depth                                : 16 bits
Compression mode                         : Lossless
Stream size                              : 1.91 GiB (17%)
Title                                    : English  DTS-HD MA 5.1
Language                                 : English
Default                                  : Yes
Forced                                   : No

Audio #2
ID                                       : 3
Format                                   : DTS XLL
Format/Info                              : Digital Theater Systems
Commercial name                          : DTS-HD Master Audio
Codec ID                                 : A_DTS
Duration                                 : 1 h 59 min
Bit rate mode                            : Variable
Bit rate                                 : 2 154 kb/s
Channel(s)                               : 6 channels
Channel layout                           : C L R Ls Rs LFE
Sampling rate                            : 48.0 kHz
Frame rate                               : 93.750 FPS (512 SPF)
Bit depth                                : 16 bits
Compression mode                         : Lossless
Stream size                              : 1.79 GiB (16%)
Title                                    : Japanese DTS-HD MA 5.1
Language                                 : Japanese
Default                                  : No
Forced                                   : No

Audio #3
ID                                       : 4
ID in the original source medium         : 4353 (0x1101)
Format                                   : DTS XLL
Format/Info                              : Digital Theater Systems
Commercial name                          : DTS-HD Master Audio
Codec ID                                 : A_DTS
Duration                                 : 1 h 59 min
Bit rate mode                            : Variable
Bit rate                                 : 2 154 kb/s
Channel(s)                               : 6 channels
Channel layout                           : C L R Ls Rs LFE
Sampling rate                            : 48.0 kHz
Frame rate                               : 93.750 FPS (512 SPF)
Bit depth                                : 16 bits
Compression mode                         : Lossless
Stream size                              : 1.79 GiB (7%)
Title                                    : Surround 5.1
Language                                 : Japanese
Default                                  : No
Forced                                   : No
Original source medium                   : Blu-ray

Audio #4
ID                                       : 5
ID in the original source medium         : 4353 (0x1101)
Format                                   : DTS
Format/Info                              : Digital Theater Systems
Codec ID                                 : A_DTS
Duration                                 : 1 h 59 min
Bit rate mode                            : Constant
Bit rate                                 : 1 509 kb/s
Channel(s)                               : 6 channels
Channel layout                           : C L R Ls Rs LFE
Sampling rate                            : 48.0 kHz
Frame rate                               : 93.750 FPS (512 SPF)
Bit depth                                : 16 bits
Compression mode                         : Lossy
Stream size                              : 1.26 GiB (5%)
Title                                    : Surround 5.1
Language                                 : Japanese
Default                                  : No
Forced                                   : No
Original source medium                   : Blu-ray

Text
ID                                       : 6
ID in the original source medium         : 4608 (0x1200)
Format                                   : PGS
Codec ID                                 : S_HDMV/PGS
Codec ID/Info                            : Picture based subtitle format used on BDs/HD-DVDs
Duration                                 : 1 h 58 min
Bit rate                                 : 29.2 kb/s
Count of elements                        : 2285
Stream size                              : 24.8 MiB (0%)
Language                                 : English
Default                                  : No
Forced                                   : No
Original source medium                   : Blu-ray

Menu
00:00:00.000                             : en:Chapter 01
00:01:03.396                             : en:Chapter 02
00:04:52.542                             : en:Chapter 03
00:12:22.658                             : en:Chapter 04
00:18:22.392                             : en:Chapter 05
00:23:16.269                             : en:Chapter 06
00:28:51.438                             : en:Chapter 07
00:33:13.282                             : en:Chapter 08
00:40:09.740                             : en:Chapter 09
00:45:23.345                             : en:Chapter 10
00:49:15.327                             : en:Chapter 11
00:55:18.315                             : en:Chapter 12
00:58:32.008                             : en:Chapter 13
01:04:50.595                             : en:Chapter 14
01:10:53.207                             : en:Chapter 15
01:15:23.477                             : en:Chapter 16
01:20:24.986                             : en:Chapter 17
01:25:16.986                             : en:Chapter 18
01:32:30.378                             : en:Chapter 19
01:38:33.824                             : en:Chapter 20
01:44:22.005                             : en:Chapter 21
01:48:19.993                             : en:Chapter 22
01:52:18.982                             : en:Chapter 23
01:54:38.538                             : en:Chapter 24


We have no issue with individuals posting or re-uploading our torrents on a platform we aren't on. However, if this is something you'd like to do, please do so in a 'as-is' format. We ask that you do not create a new torrent, include all descriptions you see above including the SEV logo, tags, notes and screenshots. If you'd like to become a permanent poster on a website we don't post to, feel free to get in contact with a Sublime Encoded Video member.


We are recruiting/training new members for SEV & seedbox providers as well as people to help out with subtitles.
As you already know, we deliver quality, so you know the standard.
If you're interested, feel free to contact any of the team members.

Category:Anime > Movies
Lang:English  English
Total Size:8.21 GB
Info Hash:52ca545ad831fd015cde01bd7fbd4cafd59f66b4
Added By:Goki
Date Added:10-03-2019 09:39:19

Files

File List: 
 File Size
Howl's Moving Castle (2004) 1080p BDRip x265 AAC 5.1 Goki [SEV]-banner.jpg39.08 kB
Howl's Moving Castle (2004) 1080p BDRip x265 AAC 5.1 Goki [SEV]-clearart.png568.92 kB
Howl's Moving Castle (2004) 1080p BDRip x265 AAC 5.1 Goki [SEV]-clearlogo.png109.08 kB
Howl's Moving Castle (2004) 1080p BDRip x265 AAC 5.1 Goki [SEV]-disc.png405.91 kB
Howl's Moving Castle (2004) 1080p BDRip x265 AAC 5.1 Goki [SEV]-fanart.gif1 MB
Howl's Moving Castle (2004) 1080p BDRip x265 AAC 5.1 Goki [SEV]-logo.png109.08 kB
Howl's Moving Castle (2004) 1080p BDRip x265 AAC 5.1 Goki [SEV]-poster.jpg67.57 kB
Howl's Moving Castle (2004) 1080p BDRip x265 AAC 5.1 Goki [SEV].mkv8.20 GB
Howl's Moving Castle (2004) 1080p BDRip x265 AAC 5.1 Goki [SEV].nfo8.16 kB



Loading...
Comments

There are currently no comments. Be the first one to write something !

Disclaimer: None of the files shown here are actually hosted or transmitted by this server. The links are provided solely by this site's users. The site moderation is also a service provided by the site's users. The administrator of this site (ettv.be) cannot be held responsible for what its users post, or any other actions of its users. You may not use this site to distribute or download any material when you do not have the legal rights to do so. It is your own responsibility to adhere to these terms.