kgf sarkar Manikarnika star trek discovery thakrey Xxx kedarnath thackeray malayalam the accidental prime minister supernatural evo aquaman telugu odiyan the flash why cheat india great british bake off s09e10 vikings tushy 18.12 1080p.mp4-ktr charlie chaplin 2 1080P Hindi mirzapur ettv mr majnu the grand tour 2018 ita Adanga Maru Tin Star etmovies dtone uri EVO malayalam 2018 movies AQUAMAN ita Bumblebee ethd ITA zero etrg venom f2 1080p 2018 maari 2 Game Of Thrones viswasam TamilRockers Kannada simmba Kannada ddr simbha tushyraw 1080p.mp4-ktr mortal engines simba petta DTOne uri the surgical strike kung fu the legend Young justice tamil robot 2.0 it brazzers it 2017 2.0 thakre Njan Prakashan glass fgt bohemian rhapsody Star Trek Discovery S02E02 
Warning! Use a VPN When Downloading Torrents!
Your IP Address is 54.166.133.84. Location is United States
Your Internet Provider is tracking your torrent activity! Hide your IP ADDRESS with a VPN!
We strongly recommend using TrustZone to anonymize your torrenting. 30 Day Money Back Guarantee!
Try it Now!
ETTV Recommended TV Shows
Arrow.S07E16.HDTV.x264-SVA[ettv] torrent
The.Fix.2019.S01E01.HDTV.x264-KILLERS[ettv] torrent
Shadowhunters.The.Mortal.Instruments.S03E14.WEB.x264-TBS[ettv] torrent
Black.Lightning.S02E16.HDTV.x264-SVA[ettv] torrent
WWE RAW 2019 03 18 HDTV x264-Star [TJET] torrent
The.Enemy.Within.S01E04.HDTV.x264-SVA[ettv] torrent

ETTV Recommended SD
Second.Act.2018.BRRip.XViD-ETRG torrent
Vice.2018.HDRip.XViD.AC3-ETRG torrent
If.Beale.Street.Could.Talk.2018.BRRip.XViD.AC3-ETRG torrent
Boo.2019.HDRip.XViD-ETRG torrent

ETTV Recommended HD
London Fields 2018.MULTi.1080p.Blu-ray.HEVC.TrueHD.5.1-DDR torrent
Aquaman.2018.MULTi.IMAX.BluRay.1080p..HEVC.Atmos.7.1-DDR torrent
Nazi Overlord 2019.Bluray.1080p.HEVC.DTS-HDMA.5.1-DDR torrent
Wildlife 2018.1080p.Blu-ray.HEVC.DTS-HDMA.5.1-DDR torrent

ETTV Recommended UHD
The World Is Not Enough 1999.2160p.UHDrip.H265.SDR.DTS-HDMA.5.1-DDR torrent
Triple Frontier 2019.UHDrip.2160p.HEVC.SDR.DDP.5.1-DDR torrent
Billy Lynns Long Halftime Walk 2016.UHD.2160p.Blu-ray.HEVC.HDR.60.FPS.Atmos.7.1-DDR torrent
Aquaman.2018.MULTi.IMAX.BluRay.2160p..HEVC.HDR.Atmos.7.1-DDR torrent

ETTV Recommended Cam
Captain Marvel 2019.HDCAM.x264.AC3-ETRG torrent
Captive State 2019.HDCAM.x264.AC3-ETRG torrent
Wonder Park 2019 HDCAM x264 AC3-ETRG torrent
Alita.Battle.Angel.2019.HDTS x264.AC3-ETRG torrent

ETTV Recommended Foreign
Master Z Ip Man Legacy 2018.Blu-ray.1080p.HEVC.Atmos.7.1-DDR torrent
Spider-Man Into the Spider-Verse 2018.Multi.EC.Blu-ray.1080p.HEVC.DTS-HDMA.7.1.[En+Hi+Ta+Te]-DDR torrent
Aquaman.2018.MULTi.IMAX.BluRay.2160p..HEVC.HDR.Atmos.7.1.[En+Hi+Ta+Te]-DDR torrent
Uri The Surgical Strike.2019.1080p.WEB-DL.AVC.AAC.ESub.DDR torrent


Download Torrent "La.Terra.Dell.Abbastanza.2018.1080p.BRRip.x264.AC3-HORiZON-ArtSubs"

IMDB Details
Description:

N/A

Genre:

N/A

Download Torrent (Magnet)
Download Torrent (File)
Seeds: 54
Leechers: 29
Completed: 618 
Last Checked: 15-03-2019 22:44:17


Loading...
Details
Title:La.Terra.Dell.Abbastanza.2018.1080p.BRRip.x264.AC3-HORiZON-ArtSubs
Description:
Release: La.Terra.Dell.Abbastanza.2018.1080p.BRRip.x264.AC3-HORiZON-ArtSubs



IMDB: https://www.imdb.com/title/tt6892446

Subtitle: None

Plot: Mirko and Manolo are best friends and live in the suburbs of Rome. They both live in poor conditions with their single parents, are still in school and struggle with occasional odd jobs to make ends meet. Together they share dreams of women, of sex and money, of a better life to come. After killing a man in a hit-and-run one night, they get involved with the local mafia and their lives change dramatically. Soon they find themselves doing the dirty work for their new bosses and have fresh blood on their hands. But lured by the dreams of easy money and illusions of a thriving career, they fail to realize the consequences of their choice. Life in the underworld becomes exceedingly tough and Mirko and Manolo soon disconnect from family and former friends as they engage on a download spiral, a pathway towards darkness.


Complete name                            : La.Terra.Dell.Abbastanza.2018.1080p.BRRip.x264.AC3-HORiZON-ArtSubs
Format                      : Matroska
Format version              : Version 4 / Version 2
File size                   : 2.09 GiB
Duration                    : 1 h 34 min
Overall bit rate            : 3 149 kb/s
Encoded date                : UTC 2019-03-14T07:35:21Z
Writing application         : HandBrake 1.1.2 2018090500
Writing library             : Lavf57.7.2

Video
ID                          : 1
Format                      : AVC
Format/Info                 : Advanced Video Codec
Format profile              : [email protected]
Format settings             : CABAC / 5 Ref Frames
Format settings, CABAC      : Yes
Format settings, ReFrames   : 5 frames
Codec ID                    : V_MPEG4/ISO/AVC
Duration                    : 1 h 34 min
Bit rate                    : 2 700 kb/s
Width                       : 1 920 pixels
Height                      : 804 pixels
Display aspect ratio        : 2.40:1
Frame rate mode             : Constant
Frame rate                  : 24.000 FPS
Color space                 : YUV
Chroma subsampling          : 4:2:0
Bit depth                   : 8 bits
Scan type                   : Progressive
Bits/(Pixel*Frame)          : 0.073
Stream size                 : 1.75 GiB (84%)
Writing library             : x264 core 155 r2901 7d0ff22
Encoding settings           : cabac=1 / ref=5 / deblock=1:-1:-1 / analyse=0x3:0x133 / me=umh / subme=10 / psy=1 / psy_rd=1.00:0.15 / mixed_ref=1 / me_range=24 / chroma_me=1 / trellis=2 / 8x8dct=1 / cqm=0 / deadzone=21,11 / fast_pskip=1 / chroma_qp_offset=-3 / threads=6 / lookahead_threads=1 / sliced_threads=0 / nr=0 / decimate=1 / interlaced=0 / bluray_compat=0 / constrained_intra=0 / bframes=8 / b_pyramid=2 / b_adapt=2 / b_bias=0 / direct=3 / weightb=1 / open_gop=0 / weightp=2 / keyint=240 / keyint_min=24 / scenecut=40 / intra_refresh=0 / rc_lookahead=60 / rc=2pass / mbtree=1 / bitrate=2700 / ratetol=1.0 / qcomp=0.60 / qpmin=0 / qpmax=69 / qpstep=4 / cplxblur=20.0 / qblur=0.5 / vbv_maxrate=62500 / vbv_bufsize=78125 / nal_hrd=none / filler=0 / ip_ratio=1.40 / aq=1:1.00
Default                     : Yes
Forced                      : No
Color range                 : Limited
Color primaries             : BT.709
Transfer characteristics    : BT.709
Matrix coefficients         : BT.709

Audio
ID                          : 2
Format                      : AC-3
Format/Info                 : Audio Coding 3
Codec ID                    : A_AC3
Duration                    : 1 h 34 min
Bit rate mode               : Constant
Bit rate                    : 448 kb/s
Channel(s)                  : 6 channels
Channel positions           : Front: L C R, Side: L R, LFE
Sampling rate               : 48.0 kHz
Frame rate                  : 31.250 FPS (1536 SPF)
Bit depth                   : 16 bits
Compression mode            : Lossy
Stream size                 : 304 MiB (14%)
Title                       : Surround
Language                    : Italian
Service kind                : Complete Main
Default                     : Yes
Forced                      : No


SCREENSHOTS:




Category:Movies > HD 1080p
Lang:Italian  Italian
Total Size:2.09 GB
Info Hash:55942c0decf9d73e41dfebefca7b96f36bea3194
Added By:artsubs
Date Added:15-03-2019 22:44:14

  

Files

File List: 
 File Size
La.Terra.Dell.Abbastanza.2018.1080p.BRRip.x264.AC3-HORiZON-ArtSubs.mkv2.09 GB



Loading...
Comments

There are currently no comments. Be the first one to write something !

Disclaimer: None of the files shown here are actually hosted or transmitted by this server. The links are provided solely by this site's users. The site moderation is also a service provided by the site's users. The administrator of this site (ettv.be) cannot be held responsible for what its users post, or any other actions of its users. You may not use this site to distribute or download any material when you do not have the legal rights to do so. It is your own responsibility to adhere to these terms.