kgf sarkar Manikarnika star trek discovery thakrey Xxx kedarnath thackeray malayalam the accidental prime minister supernatural evo aquaman telugu odiyan the flash why cheat india great british bake off s09e10 vikings tushy 18.12 1080p.mp4-ktr charlie chaplin 2 1080P Hindi mirzapur ettv mr majnu the grand tour 2018 ita Adanga Maru Tin Star etmovies dtone uri EVO malayalam 2018 movies AQUAMAN ita Bumblebee ethd ITA zero etrg venom f2 1080p 2018 maari 2 Game Of Thrones viswasam TamilRockers Kannada simmba Kannada ddr simbha tushyraw 1080p.mp4-ktr mortal engines simba petta DTOne uri the surgical strike kung fu the legend Young justice tamil robot 2.0 it brazzers it 2017 2.0 thakre Njan Prakashan glass fgt bohemian rhapsody Star Trek Discovery S02E02 
Warning! Use a VPN When Downloading Torrents!
Your IP Address is 54.166.133.84. Location is United States
Your Internet Provider is tracking your torrent activity! Hide your IP ADDRESS with a VPN!
We strongly recommend using TrustZone to anonymize your torrenting. 30 Day Money Back Guarantee!
Try it Now!
ETTV Recommended TV Shows
Arrow.S07E16.HDTV.x264-SVA[ettv] torrent
The.Fix.2019.S01E01.HDTV.x264-KILLERS[ettv] torrent
Shadowhunters.The.Mortal.Instruments.S03E14.WEB.x264-TBS[ettv] torrent
Black.Lightning.S02E16.HDTV.x264-SVA[ettv] torrent
WWE RAW 2019 03 18 HDTV x264-Star [TJET] torrent
The.Enemy.Within.S01E04.HDTV.x264-SVA[ettv] torrent

ETTV Recommended SD
Second.Act.2018.BRRip.XViD-ETRG torrent
Vice.2018.HDRip.XViD.AC3-ETRG torrent
If.Beale.Street.Could.Talk.2018.BRRip.XViD.AC3-ETRG torrent
Boo.2019.HDRip.XViD-ETRG torrent

ETTV Recommended HD
London Fields 2018.MULTi.1080p.Blu-ray.HEVC.TrueHD.5.1-DDR torrent
Aquaman.2018.MULTi.IMAX.BluRay.1080p..HEVC.Atmos.7.1-DDR torrent
Nazi Overlord 2019.Bluray.1080p.HEVC.DTS-HDMA.5.1-DDR torrent
Wildlife 2018.1080p.Blu-ray.HEVC.DTS-HDMA.5.1-DDR torrent

ETTV Recommended UHD
The World Is Not Enough 1999.2160p.UHDrip.H265.SDR.DTS-HDMA.5.1-DDR torrent
Triple Frontier 2019.UHDrip.2160p.HEVC.SDR.DDP.5.1-DDR torrent
Billy Lynns Long Halftime Walk 2016.UHD.2160p.Blu-ray.HEVC.HDR.60.FPS.Atmos.7.1-DDR torrent
Aquaman.2018.MULTi.IMAX.BluRay.2160p..HEVC.HDR.Atmos.7.1-DDR torrent

ETTV Recommended Cam
Captain Marvel 2019.HDCAM.x264.AC3-ETRG torrent
Captive State 2019.HDCAM.x264.AC3-ETRG torrent
Wonder Park 2019 HDCAM x264 AC3-ETRG torrent
Alita.Battle.Angel.2019.HDTS x264.AC3-ETRG torrent

ETTV Recommended Foreign
Master Z Ip Man Legacy 2018.Blu-ray.1080p.HEVC.Atmos.7.1-DDR torrent
Spider-Man Into the Spider-Verse 2018.Multi.EC.Blu-ray.1080p.HEVC.DTS-HDMA.7.1.[En+Hi+Ta+Te]-DDR torrent
Aquaman.2018.MULTi.IMAX.BluRay.2160p..HEVC.HDR.Atmos.7.1.[En+Hi+Ta+Te]-DDR torrent
Uri The Surgical Strike.2019.1080p.WEB-DL.AVC.AAC.ESub.DDR torrent


Download Torrent "Aquaman.2018.2160p.UHD.HDR.BluRay.(x265 10bit DD5.1).[WMAN-LorD]D"

IMDB Details
Description:

Arthur Curry, the human-born heir to the underwater kingdom of Atlantis, goes on a quest to prevent a war between the worlds of ocean and land.

Genre:

Action, Adventure, Fantasy, Sci-Fi

Download Torrent (Magnet)
Download Torrent (File)
Seeds: 244
Leechers: 115
Completed: 2,321 
Last Checked: 16-03-2019 02:03:04


Details
Title:Aquaman.2018.2160p.UHD.HDR.BluRay.(x265 10bit DD5.1).[WMAN-LorD]D
Description:
/!\ If you do not have a hdr monitor. Do this to reproduce right colors. 

   Download madVR ( www.madvr.com/ ).
   Config: Unzip madVR -> copy madVR folder to C:\Program Files\ -> Run as administrator install.bat -> OK.

   Download Media Player Classic - BE ( https://sourceforge.net/projects/mpcbe/ ).
   Config: MPC-BE -> View -> Options -> Video -> Video Renderer -> Select madVR -> OK.

/!\ Original 4K releases with much noise, most are old movies. With much noise more bitrate is needed to maintain the quality and final file size are bigger. Releases with 60fps are bigger too.

 

Release info:
>Encoded by: [WMAN-LorD]
>HDR working!
>Subtitles.
>Chapters.
>Cover.
>SSIM:  
>PSNR: 
>Source: Blu-ray Original 4k HDR






General
Unique ID                   : 299382122689171110438654800474350174551 (0xE13AE644FC2E3E7E45159CDB693E4157)
Complete name               : Aquaman.2018.2160p.UHD.HDR.BluRay.(x265 10bit DD5.1).[WMAN-LorD]D.mkv
Format                      : Matroska
Format version              : Version 4
File size                   : 6.47 GiB
Duration                    : 2 h 23 min
Overall bit rate            : 6 465 kb/s
Movie name                  : Aquaman 4K
Encoded date                : UTC 2019-03-16 01:18:16
Writing application         : mkvmerge v31.0.0 ('Dolores In A Shoestand') 64-bit
Writing library             : libebml v1.3.6 + libmatroska v1.4.9
Cover                       : Yes
Attachments                 : cover.jpg

Video
ID                          : 1
Format                      : HEVC
Format/Info                 : High Efficiency Video Coding
Format profile              : Main [email protected]@Main
Codec ID                    : V_MPEGH/ISO/HEVC
Duration                    : 2 h 23 min
Bit rate                    : 5 828 kb/s
Width                       : 3 840 pixels
Height                      : 2 160 pixels
Display aspect ratio        : 16:9
Frame rate mode             : Constant
Frame rate                  : 23.976 (24000/1001) FPS
Color space                 : YUV
Chroma subsampling          : 4:2:0
Bit depth                   : 10 bits
Bits/(Pixel*Frame)          : 0.029
Stream size                 : 5.83 GiB (90%)
Title                       : [WMAN-LorD]
Default                     : Yes
Forced                      : No
Color range                 : Limited
Color primaries             : BT.2020
Transfer characteristics    : PQ
Matrix coefficients         : BT.2020 non-constant

Audio
ID                          : 2
Format                      : AC-3
Format/Info                 : Audio Coding 3
Commercial name             : Dolby Digital
Codec ID                    : A_AC3
Duration                    : 2 h 23 min
Bit rate mode               : Constant
Bit rate                    : 448 kb/s
Channel(s)                  : 6 channels
Channel layout              : L R C LFE Ls Rs
Sampling rate               : 48.0 kHz
Frame rate                  : 31.250 FPS (1536 SPF)
Bit depth                   : 16 bits
Compression mode            : Lossy
Stream size                 : 459 MiB (7%)
Title                       : Compatibility Track / Dolby Digital Audio / 5.1 / 48 kHz / 640 kbps
Language                    : English
Service kind                : Complete Main
Default                     : No
Forced                      : No

Text #1
ID                          : 3
Format                      : PGS
Muxing mode                 : zlib
Codec ID                    : S_HDMV/PGS
Codec ID/Info               : Picture based subtitle format used on BDs/HD-DVDs
Duration                    : 2 h 22 min
Bit rate                    : 21.2 kb/s
Count of elements           : 2246
Stream size                 : 21.5 MiB (0%)
Title                       : Portuguese (Iberian)
Language                    : Portuguese
Default                     : Yes
Forced                      : No

Text #2
ID                          : 4
Format                      : PGS
Muxing mode                 : zlib
Codec ID                    : S_HDMV/PGS
Codec ID/Info               : Picture based subtitle format used on BDs/HD-DVDs
Duration                    : 2 h 22 min
Bit rate                    : 25.8 kb/s
Count of elements           : 2940
Stream size                 : 26.4 MiB (0%)
Title                       : English (SDH)
Language                    : English
Default                     : No
Forced                      : No

Text #3
ID                          : 5
Format                      : PGS
Muxing mode                 : zlib
Codec ID                    : S_HDMV/PGS
Codec ID/Info               : Picture based subtitle format used on BDs/HD-DVDs
Duration                    : 2 h 22 min
Bit rate                    : 11.4 kb/s
Count of elements           : 2262
Stream size                 : 11.6 MiB (0%)
Title                       : Arabic
Language                    : Arabic
Default                     : No
Forced                      : No

Text #4
ID                          : 6
Format                      : PGS
Muxing mode                 : zlib
Codec ID                    : S_HDMV/PGS
Codec ID/Info               : Picture based subtitle format used on BDs/HD-DVDs
Duration                    : 2 h 22 min
Bit rate                    : 20.2 kb/s
Count of elements           : 2264
Stream size                 : 20.6 MiB (0%)
Title                       : Bulgarian
Language                    : Bulgarian
Default                     : No
Forced                      : No

Text #5
ID                          : 7
Format                      : PGS
Muxing mode                 : zlib
Codec ID                    : S_HDMV/PGS
Codec ID/Info               : Picture based subtitle format used on BDs/HD-DVDs
Duration                    : 2 h 22 min
Bit rate                    : 19.4 kb/s
Count of elements           : 2256
Stream size                 : 19.7 MiB (0%)
Title                       : Chinese (Cantonese)
Language                    : Chinese
Default                     : No
Forced                      : No

Text #6
ID                          : 8
Format                      : PGS
Muxing mode                 : zlib
Codec ID                    : S_HDMV/PGS
Codec ID/Info               : Picture based subtitle format used on BDs/HD-DVDs
Duration                    : 2 h 22 min
Bit rate                    : 23.9 kb/s
Count of elements           : 2696
Stream size                 : 24.3 MiB (0%)
Title                       : Chinese (Mandarin Simplified)
Language                    : Chinese
Default                     : No
Forced                      : No

Text #7
ID                          : 9
Format                      : PGS
Muxing mode                 : zlib
Codec ID                    : S_HDMV/PGS
Codec ID/Info               : Picture based subtitle format used on BDs/HD-DVDs
Duration                    : 2 h 22 min
Bit rate                    : 20.8 kb/s
Count of elements           : 2116
Stream size                 : 21.1 MiB (0%)
Title                       : Chinese (Mandarin Traditional)
Language                    : Chinese
Default                     : No
Forced                      : No

Text #8
ID                          : 10
Format                      : PGS
Muxing mode                 : zlib
Codec ID                    : S_HDMV/PGS
Codec ID/Info               : Picture based subtitle format used on BDs/HD-DVDs
Duration                    : 2 h 22 min
Bit rate                    : 21.4 kb/s
Count of elements           : 2250
Stream size                 : 21.8 MiB (0%)
Title                       : Croatian
Language                    : Croatian
Default                     : No
Forced                      : No

Text #9
ID                          : 11
Format                      : PGS
Muxing mode                 : zlib
Codec ID                    : S_HDMV/PGS
Codec ID/Info               : Picture based subtitle format used on BDs/HD-DVDs
Duration                    : 2 h 22 min
Bit rate                    : 19.7 kb/s
Count of elements           : 2242
Stream size                 : 20.0 MiB (0%)
Title                       : Czech
Language                    : Czech
Default                     : No
Forced                      : No

Text #10
ID                          : 12
Format                      : PGS
Muxing mode                 : zlib
Codec ID                    : S_HDMV/PGS
Codec ID/Info               : Picture based subtitle format used on BDs/HD-DVDs
Duration                    : 2 h 22 min
Bit rate                    : 20.1 kb/s
Count of elements           : 1776
Stream size                 : 20.4 MiB (0%)
Title                       : Danish
Language                    : Danish
Default                     : No
Forced                      : No

Text #11
ID                          : 13
Format                      : PGS
Muxing mode                 : zlib
Codec ID                    : S_HDMV/PGS
Codec ID/Info               : Picture based subtitle format used on BDs/HD-DVDs
Duration                    : 2 h 22 min
Bit rate                    : 19.1 kb/s
Count of elements           : 2236
Stream size                 : 19.5 MiB (0%)
Title                       : Finnish
Language                    : Finnish
Default                     : No
Forced                      : No

Text #12
ID                          : 14
Format                      : PGS
Muxing mode                 : zlib
Codec ID                    : S_HDMV/PGS
Codec ID/Info               : Picture based subtitle format used on BDs/HD-DVDs
Duration                    : 2 h 22 min
Bit rate                    : 19.1 kb/s
Count of elements           : 2412
Stream size                 : 19.4 MiB (0%)
Title                       : French
Language                    : French
Default                     : No
Forced                      : No

Text #13
ID                          : 15
Format                      : PGS
Muxing mode                 : zlib
Codec ID                    : S_HDMV/PGS
Codec ID/Info               : Picture based subtitle format used on BDs/HD-DVDs
Duration                    : 2 h 22 min
Bit rate                    : 22.4 kb/s
Count of elements           : 2236
Stream size                 : 22.8 MiB (0%)
Title                       : Greek
Language                    : Greek
Default                     : No
Forced                      : No

Text #14
ID                          : 16
Format                      : PGS
Muxing mode                 : zlib
Codec ID                    : S_HDMV/PGS
Codec ID/Info               : Picture based subtitle format used on BDs/HD-DVDs
Duration                    : 2 h 22 min
Bit rate                    : 21.9 kb/s
Count of elements           : 2230
Stream size                 : 22.3 MiB (0%)
Title                       : Hungarian
Language                    : Hungarian
Default                     : No
Forced                      : No

Text #15
ID                          : 17
Format                      : PGS
Muxing mode                 : zlib
Codec ID                    : S_HDMV/PGS
Codec ID/Info               : Picture based subtitle format used on BDs/HD-DVDs
Duration                    : 2 h 15 min
Bit rate                    : 27.8 kb/s
Count of elements           : 2972
Stream size                 : 26.8 MiB (0%)
Title                       : Italian (SDH)
Language                    : Italian
Default                     : No
Forced                      : No

Text #16
ID                          : 18
Format                      : PGS
Muxing mode                 : zlib
Codec ID                    : S_HDMV/PGS
Codec ID/Info               : Picture based subtitle format used on BDs/HD-DVDs
Duration                    : 2 h 14 min
Bit rate                    : 16.7 kb/s
Count of elements           : 3235
Stream size                 : 16.1 MiB (0%)
Title                       : Japanese
Language                    : Japanese
Default                     : No
Forced                      : No

Text #17
ID                          : 19
Format                      : PGS
Muxing mode                 : zlib
Codec ID                    : S_HDMV/PGS
Codec ID/Info               : Picture based subtitle format used on BDs/HD-DVDs
Duration                    : 2 h 22 min
Bit rate                    : 12.7 kb/s
Count of elements           : 2262
Stream size                 : 12.9 MiB (0%)
Title                       : Korean
Language                    : Korean
Default                     : No
Forced                      : No

Text #18
ID                          : 20
Format                      : PGS
Muxing mode                 : zlib
Codec ID                    : S_HDMV/PGS
Codec ID/Info               : Picture based subtitle format used on BDs/HD-DVDs
Duration                    : 2 h 22 min
Bit rate                    : 19.7 kb/s
Count of elements           : 1994
Stream size                 : 20.1 MiB (0%)
Title                       : Norwegian
Language                    : Norwegian
Default                     : No
Forced                      : No

Text #19
ID                          : 21
Format                      : PGS
Muxing mode                 : zlib
Codec ID                    : S_HDMV/PGS
Codec ID/Info               : Picture based subtitle format used on BDs/HD-DVDs
Duration                    : 2 h 22 min
Bit rate                    : 19.2 kb/s
Count of elements           : 2238
Stream size                 : 19.5 MiB (0%)
Title                       : Polish
Language                    : Polish
Default                     : No
Forced                      : No

Text #20
ID                          : 22
Format                      : PGS
Muxing mode                 : zlib
Codec ID                    : S_HDMV/PGS
Codec ID/Info               : Picture based subtitle format used on BDs/HD-DVDs
Duration                    : 2 h 22 min
Bit rate                    : 20.7 kb/s
Count of elements           : 2242
Stream size                 : 21.0 MiB (0%)
Title                       : Romanian
Language                    : Romanian
Default                     : No
Forced                      : No

Text #21
ID                          : 23
Format                      : PGS
Muxing mode                 : zlib
Codec ID                    : S_HDMV/PGS
Codec ID/Info               : Picture based subtitle format used on BDs/HD-DVDs
Duration                    : 2 h 22 min
Bit rate                    : 20.3 kb/s
Count of elements           : 2240
Stream size                 : 20.7 MiB (0%)
Title                       : Russian
Language                    : Russian
Default                     : No
Forced                      : No

Text #22
ID                          : 24
Format                      : PGS
Muxing mode                 : zlib
Codec ID                    : S_HDMV/PGS
Codec ID/Info               : Picture based subtitle format used on BDs/HD-DVDs
Duration                    : 2 h 22 min
Bit rate                    : 18.6 kb/s
Count of elements           : 2038
Stream size                 : 18.9 MiB (0%)
Title                       : Slovenian
Language                    : Slovenian
Default                     : No
Forced                      : No

Text #23
ID                          : 25
Format                      : PGS
Muxing mode                 : zlib
Codec ID                    : S_HDMV/PGS
Codec ID/Info               : Picture based subtitle format used on BDs/HD-DVDs
Duration                    : 2 h 22 min
Bit rate                    : 21.2 kb/s
Count of elements           : 2298
Stream size                 : 21.6 MiB (0%)
Title                       : Spanish (Castilian)
Language                    : Spanish
Default                     : No
Forced                      : No

Text #24
ID                          : 26
Format                      : PGS
Muxing mode                 : zlib
Codec ID                    : S_HDMV/PGS
Codec ID/Info               : Picture based subtitle format used on BDs/HD-DVDs
Duration                    : 2 h 22 min
Bit rate                    : 21.1 kb/s
Count of elements           : 2258
Stream size                 : 21.5 MiB (0%)
Title                       : Spanish (Latin American)
Language                    : Spanish
Default                     : No
Forced                      : No

Text #25
ID                          : 27
Format                      : PGS
Muxing mode                 : zlib
Codec ID                    : S_HDMV/PGS
Codec ID/Info               : Picture based subtitle format used on BDs/HD-DVDs
Duration                    : 2 h 22 min
Bit rate                    : 20.3 kb/s
Count of elements           : 2234
Stream size                 : 20.7 MiB (0%)
Title                       : Swedish
Language                    : Swedish
Default                     : No
Forced                      : No

Text #26
ID                          : 28
Format                      : PGS
Muxing mode                 : zlib
Codec ID                    : S_HDMV/PGS
Codec ID/Info               : Picture based subtitle format used on BDs/HD-DVDs
Duration                    : 2 h 22 min
Bit rate                    : 20.5 kb/s
Count of elements           : 2246
Stream size                 : 20.9 MiB (0%)
Title                       : Thai
Language                    : Thai
Default                     : No
Forced                      : No

Text #27
ID                          : 29
Format                      : PGS
Muxing mode                 : zlib
Codec ID                    : S_HDMV/PGS
Codec ID/Info               : Picture based subtitle format used on BDs/HD-DVDs
Duration                    : 2 h 22 min
Bit rate                    : 21.5 kb/s
Count of elements           : 2252
Stream size                 : 21.9 MiB (0%)
Title                       : Turkish
Language                    : Turkish
Default                     : No
Forced                      : No

Menu
00:00:00.000                : en:Chapter 01
00:11:08.293                : en:Chapter 02
00:22:10.621                : en:Chapter 03
00:30:10.017                : en:Chapter 04
00:40:27.717                : en:Chapter 05
00:50:23.646                : en:Chapter 06
01:01:14.754                : en:Chapter 07
01:08:56.090                : en:Chapter 08
01:21:40.270                : en:Chapter 09
01:34:49.434                : en:Chapter 10
01:39:36.429                : en:Chapter 11
01:49:31.815                : en:Chapter 12
02:01:35.538                : en:Chapter 13
02:10:18.894                : en:Chapter 14










 
Category:Movies > UltraHD/4K
Lang:English  English
Total Size:6.47 GB
Info Hash:2524525d3e7e58cb9b637700923c3b116ae5340b
Added By:UHDLorD
Date Added:16-03-2019 02:03:00

Files

File List: 
 File Size
Aquaman.2018.2160p.UHD.HDR.BluRay.(x265 10bit DD5.1).[WMAN-LorD]D.mkv6.47 GB




NFO:

Loading...
Comments

There are currently no comments. Be the first one to write something !

Disclaimer: None of the files shown here are actually hosted or transmitted by this server. The links are provided solely by this site's users. The site moderation is also a service provided by the site's users. The administrator of this site (ettv.be) cannot be held responsible for what its users post, or any other actions of its users. You may not use this site to distribute or download any material when you do not have the legal rights to do so. It is your own responsibility to adhere to these terms.