2.0 (2018) toy story 4 peaky blinders s05e05 men in black international 2019 萝莉 big bang theory español dark phoenix 2019 ready or not 2019 ethd Last Week Tonight anal fast furious presents hobbs shaw 2019 the lion king 2019 ddr proper kabir singh ettv scary stories to tell in the dark 2019 Anna  spider man far from home 2019 ballers anna 2019 avengers endgame 2019 godzilla king of the monsters 2019 0 it chapter two 2019 Titans s02e02 angel has fallen 2019 joker 2019 HINDI it 2017 47 meters down uncaged 2019 ad astra 2019 spiderman Succession love hip hop hollywood s06e07 wwe yesterday 2019 preacher toy story 4 2019 Fear The Walking Dead once upon a time in hollywood 2019 hustlers 2019 the deuce etmovies Survivor power s06e03 幼女 preacher s04e08 xxx etrg good boys 2019 aladdin 2019 ballers s05e04 far from home john wick chapter 3 – parabellum 2019 titans spider man far from home spiderman far from home power s06e04 yts fear the walking dead s05e14 evo ma 2019 peaky blinders childs play 2019 the secret life of pets 2 2019 dream girl  Crawl 2019 
Warning! Use a VPN When Downloading Torrents!
Your IP Address is 18.206.194.83. Location is United States
Your Internet Provider is tracking your torrent activity! Hide your IP ADDRESS with a VPN!
We strongly recommend using TrustZone to anonymize your torrenting. 30 Day Money Back Guarantee!
Try it Now!
ETTV Recommended TV Shows
Mayans.M.C.S02E03.WEB.H264-iNSiDiOUS[ettv] torrent
Bachelor.In.Paradise.S06E13.WEB.x264-TBS[ettv] torrent
Mr.Mercedes.S03E02.Madness.720p.AMZN.WEB-DL.DDP5.1.H.264-NTb[ettv] torrent
WWE SmackDown Live 2019 09 17 HDTV x264-NWCHD [TJET] torrent

ETTV Recommended SD
Mayday.2019.HDRip.XviD.AC3-EVO[EtMovies] torrent
Annabelle Comes Home.2019.HDRip.XViD-ETRG torrent
Rogue.Cell.2019.HDRip.XviD.AC3-EVO torrent
Spider-Man.Far.from.Home.2019.BRRip.XViD.AC3-ETRG torrent

ETTV Recommended HD
A.Score.to.Settle.2019.1080p.BluRay.x264-ROVERS[EtHD] torrent
Annabelle Comes Home.2019.1080p.WEB-DL.H264.AC3-EVO[EtHD] torrent
Live.By.Night.2016.BDRip.1080p.x264.Multilang.TrueHD.DTS.DD5.1.Gerald torrent
Spider-Man.Far.from.Home.2019.1080p.BluRay.x264-SPARKS[EtHD] torrent

ETTV Recommended UHD
Power Rangers 2017.MULTi.UHD.Blu-ray.2160p.HDR.Atmos.7.1.HEVC-DDR torrent
Smurfs - The Lost Village 2017.MULTi.UHD.Blu-ray.2160p.HDR.Atmos.7.1.HEVC-DDR torrent
Resident Evil Vendetta 2017.MULTi.UHD.Blu-ray.2160p.HDR.Atmos.7.1.HEVC-DDR torrent
Rough Night.2017.MULTi.UHD.Blu-ray.2160p.HDR.Atmos.7.1.HEVC-DDR torrent

ETTV Recommended Cam
It Chapter Two 2019.HDCAM.x264.AC3-ETRG torrent
Downton Abbey 2019 720p HDCAM-GETB8 torrent
Hustlers 2019 HDCAM x264 AC3-ETRG torrent
Rambo Last Blood 2019 HDCAM x264 AC3-ETRG torrent

ETTV Recommended Foreign
Dream Girl 2019 Hindi 720p Pre-DVD Rip x264 AAC { TaRa }.mkv torrent
Jin-Roh.The.Wolf.Brigade.1999.BDRip 1080p Ita Jap x265-NAHOM torrent
Back Street Girls Gokudols The Movie 2019 720p BluRay x264 Ganool torrent
Kabir.Singh.2019.Hindi.HDRip..x264.AC3-ETRG torrent


Download Torrent "Captain Marvel 2019 720p HDTS x264 [MW]"

IMDB Details
Description:

Carol Danvers becomes one of the universe's most powerful heroes when Earth is caught in the middle of a galactic war between two alien races.

Genre:

Action, Adventure, Sci-Fi

Download Torrent (Magnet)
Download Torrent (File)
Seeds: 524
Leechers: 1,074
Completed: 40,559 
Last Checked: 31-03-2019 15:32:55


Loading...
Details
Title:Captain Marvel 2019 720p HDTS x264 [MW]
Description:




General
Format                                   : Matroska
Format version                           : Version 4
File size                                : 1.25 GiB
Duration                                 : 1 h 52 min
Overall bit rate                         : 1 592 kb/s

Video
ID                                       : 1
Format                                   : AVC
Format/Info                              : Advanced Video Codec
Format profile                           : [email protected]
Format settings                          : CABAC / 4 Ref Frames
Format settings, CABAC                   : Yes
Format settings, RefFrames               : 4 frames
Codec ID                                 : V_MPEG4/ISO/AVC
Duration                                 : 1 h 52 min
Bit rate                                 : 1 400 kb/s
Width                                    : 1 280 pixels
Height                                   : 548 pixels
Display aspect ratio                     : 2.35:1
Frame rate mode                          : Constant
Frame rate                               : 29.970 (30000/1001) FPS
Color space                              : YUV
Chroma subsampling                       : 4:2:0
Bit depth                                : 8 bits
Scan type                                : Progressive
Bits/(Pixel*Frame)                       : 0.067
Stream size                              : 1.10 GiB (88%)
Writing library                          : x264 core 157 r2935 545de2f

Audio
ID                                       : 2
Format                                   : AAC LC
Codec ID                                 : A_AAC-2
Duration                                 : 1 h 52 min
Bit rate                                 : 192 kb/s
Channel(s)                               : 2 channels
Channel layout                           : L R
Sampling rate                            : 48.0 kHz
Frame rate                               : 46.875 FPS (1024 SPF)
Compression mode                         : Lossy
Stream size                              : 155 MiB (12%)
Language                                 : English
Default                                  : Yes
Forced                                   : No


Click To View Image

https://pichub.site/image/wieSX
https://pichub.site/image/wijg8
https://pichub.site/image/wtfM5
https://pichub.site/image/wtMpj
https://pichub.site/image/wtJth
https://pichub.site/image/wtIkk

Category:Movies > CAM/TS
Lang:English  English
Total Size:1.25 GB
Info Hash:6d603f56d308cb1e8c7da0b74d23861b803b220b
Added By:MovieFreak
Date Added:31-03-2019 15:32:53

Files

File List: 
 File Size
Captain Marvel 2019 720p HDTS x264 [MW].mkv1.25 GB



Loading...
Comments

There are currently no comments. Be the first one to write something !

Disclaimer: None of the files shown here are actually hosted or transmitted by this server. The links are provided solely by this site's users. The site moderation is also a service provided by the site's users. The administrator of this site (ettv.be) cannot be held responsible for what its users post, or any other actions of its users. You may not use this site to distribute or download any material when you do not have the legal rights to do so. It is your own responsibility to adhere to these terms.