nancy drew aew evo Rick and Morty S04E04 silicon valley knives out 2019 seal team s03e09 survivor gemini man 2019 the mandalorian s01e04 Christmas The Irishman queen slim 2019 etrg ethd see Titans v wars survivor s39e11 angel has fallen 2019 mr robot arrow seal team vikings s06e02 wwe modern family s11e08 stumptown The Morning Show the irishman 2019 hustlers 2019 joker 2019 Vikings nancy drew s01e08 stumptown s01e08 frozen ii 2019 the flash terminator dark fate 2019 rambo last blood 2019 the flash s06e08 supernatural ford v ferrari 2019 xxx marvel week mandalorian maleficent mistress of evil 2019 21 bridges 2019 yts Ad Astra  ncis castle rock south park s23e09 vikings s06e01 etmovies ad astra 2019 batwoman joker the mandalorian treadstone ettv South Park dc week modern family supergirl watchmen proper rick and morty RIVERDALE the walking dead Hindi His Dark Materials ddr arrow s08e07 
Warning! Use a V.P.N when Downloading Torrents!
Your IP Address is 18.207.238.169. Location is United States
Your Internet Provider is tracking your torrent activity! Hide your IP ADDRESS with a V.P.N!
We strongly recommend using ExpressVP-N to anonymize your torrenting. 30 Day Money Back Guarantee!
Try it Now!
ETTV Recommended TV Shows
Nancy.Drew.2019.S01E08.HDTV.x264-SVA[ettv] torrent
Stumptown.S01E08.HDTV.x264-SVA[ettv] torrent
Vikings.S06E01.HDTV.x264-SVA[ettv] torrent
SEAL.Team.S03E09.HDTV.x264-KILLERS[ettv] torrent

ETTV Recommended SD
Amundsen.2019.BDRip.XviD.AC3-EVO[EtMovies] torrent
A.Holiday.Boyfriend.2019.HDRip.XviD.AC3-EVO[EtMovies] torrent
Downton Abbey.2019.BRRip.XviD.AC3-EVO[EtMovies] torrent
The.Dunes.2019.HDRip.XviD.AC3-EVO torrent

ETTV Recommended HD
The.Reliant.2019.1080p.AMZN.WEB-DL.DDP5.1.H.264-NTG[EtHD] torrent
X-Men.Apocalypse.2016.BDRip.1080p.x264.Multilang.TrueHD.DTS.DD5.1.Gerald torrent
Downton.Abbey.2019.BluRay.720p.x264.DTS-HDChina[EtHD] torrent
Ad.Astra.2019.1080p.Bluray.DTS-HD.MA.7.1.X264-EVO[EtHD] torrent

ETTV Recommended UHD
Hustlers.2019.2160p.UHD.BluRay.X265.10bit.HDR.TrueHD.7.1.Atmos-AAAUHD torrent
It.Chapter.Two.2019.2160p.UHD.BluRay.X265.10bit.HDR.TrueHD.7.1.Atmos-AAAUHD torrent
John.Wick.2014.BDRip.2160p.UHD.HDR.Eng.Fre.Spa.TrueHD.DD5.1.Gerald torrent
X-Men.Apocalypse.2016.BDRip.2160p.UHD.HDR.Multilang.TrueHD.DTS.DD5.1.Gerald torrent

ETTV Recommended Cam
Last Christmas 2019 HDCAM x264 AC3-ETRG torrent
Dark Waters 2019 HDCAM x264-ETRG torrent
Blue Story 2019 HDCAM x264 AC3-ETRG torrent
Jay and Silent Bob Reboot 2019 HDCAM x264-ETRG torrent

ETTV Recommended Foreign
Allegiant (2016) 720p BluRay x264 Eng Subs [Dual Audio] [Hindi DD 2.0 - English 2.0] Exclusive By -=!Dr.STAR!=- torrent
Line of Descent.2019.Hindi.1080p.WEB-DL.x264.AAC.Esub -DDR[EtHD] torrent
Kala Shah Kala (2019) Punjabi 720p HDRip x264 AAC - Downloadhub torrent
The Spy Who Dumped Me 2018 x264 720p Esub BluRay Dual Audio English Hindi GOPISAHI torrent


Download Torrent "How to Train Your Dragon The Hidden World (2019) x 1600 (2160p) HDR 5.1 x26..."

IMDB Details
Description:

When Hiccup discovers Toothless isn't the only Night Fury, he must seek "The Hidden World", a secret Dragon Utopia before a hired tyrant named Grimmel finds it first.

Genre:

Animation, Action, Adventure, Comedy, Family, Fantasy

Download Torrent (Magnet)
Download Torrent (File)
Seeds: 960
Leechers: 361
Completed: 3,395 
Last Checked: 11-04-2019 22:48:15


Details
Title:How to Train Your Dragon The Hidden World (2019) x 1600 (2160p) HDR 5.1 x26...
Description:
www.imdb.com/title/tt2386490/

When Hiccup discovers Toothless isn't the only Night Fury, he must seek "The Hidden World", a secret Dragon Utopia before a hired tyrant named Grimmel finds it first.

Source: FGT 4K HDR Remux







Format                      : Matroska
Format version              : Version 4
File size                   : 2.28 GiB
Duration                    : 1 h 44 min
Overall bit rate            : 3 140 kb/s
Writing application         : HandBrake 1.2.0 2018121700

Video
ID                          : 1
Format                      : HEVC
Format/Info                 : High Efficiency Video Coding
Format profile              : Main [email protected]@High
Codec ID                    : V_MPEGH/ISO/HEVC
Duration                    : 1 h 44 min
Bit rate                    : 2 757 kb/s
Width                       : 3 840 pixels
Height                      : 1 600 pixels
Display aspect ratio        : 2.40:1
Frame rate mode             : Constant
Frame rate                  : 23.976 (24000/1001) FPS
Color space                 : YUV
Chroma subsampling          : 4:2:0
Bit depth                   : 10 bits
Bits/(Pixel*Frame)          : 0.019
Stream size                 : 2.00 GiB (88%)
Writing library             : x265 2.9:[Windows][GCC 7.1.0][64 bit] 10bit
Color primaries             : BT.2020
Transfer characteristics    : PQ
Matrix coefficients         : BT.2020 non-constant

Audio
ID                          : 2
Format                      : AC-3
Format/Info                 : Audio Coding 3
Commercial name             : Dolby Digital
Codec ID                    : A_AC3
Duration                    : 1 h 44 min
Bit rate mode               : Constant
Bit rate                    : 320 kb/s
Channel(s)                  : 6 channels
Channel layout              : L R C LFE Ls Rs
Sampling rate               : 48.0 kHz
Frame rate                  : 31.250 FPS (1536 SPF)
Bit depth                   : 16 bits
Compression mode            : Lossy
Stream size                 : 238 MiB (10%)
Title                       : Surround
Language                    : English

Text 
Language                    : English
Language                    : English
Language                    : English
Language                    : English
Default                     : No
Forced                      : No
Category:Movies > UltraHD/4K
Lang:English  English
Total Size:2.28 GB
Info Hash:a08095b0cdee209bc895a1ce1ee0788f3e83faa0
Added By:phunpsyz
Date Added:11-04-2019 22:48:11

  

Files

File List: 
 File Size
How to Train Your Dragon The Hidden World (2019) x 1600 (2160p) HDR 5.1 x265 10bit Phun Psyz.mkv2.28 GB



Loading...
Comments

<< Previous      Next >>
1 - 3

[Report] Posted: 15-04-2019 at 16:14:46
gerald99
Moderator

Thanks phunpsyz

[Report] Posted: 23-04-2019 at 08:38:48
BecBristow


Fantastic rip, You're the best Phunpsyz!

[Report] Posted: 23-04-2019 at 08:39:18
BecBristow


Awesome Rip! you the best phunpsy!

1 - 3
<< Previous      Next >>


Disclaimer: None of the files shown here are actually hosted or transmitted by this server. The links are provided solely by this site's users. The site moderation is also a service provided by the site's users. The administrator of this site (ettv.be) cannot be held responsible for what its users post, or any other actions of its users. You may not use this site to distribute or download any material when you do not have the legal rights to do so. It is your own responsibility to adhere to these terms.