Siren S03E10 Birds of Prey (and the Fantabulous Emancipation of One Harley Quinn) 2020 Capone 2020 in the dark hindi Americandad the flash  ETTV rick and morty ethd Jersey Shore Family Vacation S03E26 The Challenge S35E09 yts rick and morty s04e09 WHAT WE DO IN THE SHADOWS the 100 s07e02 Bad Boys for Life 2020 Harley Quinn Gangs of London S01E06 agents of shield defending jacob nascar Blindspot S05E03 AmericasGotTalentS15E01 westworld seal team Space Force S01E01 the 100 supergirl Defending Jacob S01E08 Brazzers Best Of Brazzers 2160p the walking dead Scoob! 2020 hindi 2020 Jeffrey Epstein Filthy Rich S01E01 Marvels Agents of S H I E L D s07e01 the good fight stargirl Survive the Night 2020 rq.mp4 Blindspot space force What We Do in the Shadows s02e08 ddr ita  siren The Wrong Missy 2020 evo marvel week BarkskinsS01E01 snowpiercer stargirl s01e02 Yts legends of tomorrow Outlander billions etmovies Marvels Agents of S.H.I.E.L.D. S07E01 extraction 2020 etrg Locke  minx XXX BadBoysforLife2020 killing eve Transplant WWE  dc week Rick.and.Morty.S04E02.720p.WEBRip.x264-TBS[TGx] 
ETTV Recommended TV Shows
Man.With.a.Plan.S04E11.HDTV.x264-SVA[ettv] torrent
Siren.2018.S03E10.WEB.H264-BTX[ettv] torrent
In.the.Dark.2019.S02E07.HDTV.x264-SVA.ETRG torrent
Blindspot.S05E03.HDTV.x264-SVA.ETRG torrent

ETTV Recommended SD
7500.2020.HDRip.XviD.AC3-EVO torrent
Code.of.Thieves.2020.HDRip.XviD.AC3-EVO torrent
Debt.Collectors.2020.HDRip.XviD.AC3-EVO torrent
For.We.Are.Many.2019.HDRip.XviD.AC3-EVO torrent

ETTV Recommended HD
For.We.Are.Many.2019.1080p.WEBRip.X264.DD.2.0-EVO[EtHD] torrent
Debt.Collectors.2020.1080p.WEBRip.X264.DD.5.1-EVO[EtHD] torrent
Code.of.Thieves.2020.1080p.AMZN.WEB-DL.DDP2.0.H.264-CMRG[EtHD] torrent
The.Berlin.Bride.2020.1080p.AMZN.WEB-DL.DDP2.0.H.264-CMRG[EtHD] torrent

ETTV Recommended UHD
The.Wrong.Missy.2020.UHD.MULTI.2160p.HDR.WEBRip.DDP.5.1.HEVC-DDR[EtHD] torrent
Queen & Slim (2019) [BluRay Rip 2160p HEVC 10bit-HDR ITA-ENG DTS-AC3-SUBS] [M@HD] torrent
1917.2019.HDR10Plus.2160p.UHD.BluRay.x265.iNTERNAL-JustWatch.ETRG torrent
Dolittle.2020.HDR10Plus.2160p.UHD.BluRay.x265.iNTERNAL-JustWatch.ETRG torrent

ETTV Recommended Cam
The Hunt 2020 HDCAM x264 AC3-ETRG torrent
The Burnt Orange Heresy 2020 720p HDCAM-C1NEM4 torrent

ETTV Recommended Foreign
Frozen.II.2019.ESTONiAN.1080p.WEBRip.x264-EMX[EtHD] torrent
Golkeri.2020.720p.AMZN.WEB-DL.DD+5.1.x264-Telly torrent
Stinger (2005) 720p BluRay x264 [Dual Audio] [Hindi DD 2.0 - English 5.1] Exclusive By -=!Dr.STAR!=- torrent
Lady Driver (2020) HDRip 720p [Hindi-Dub] Dual-Audio x264 - 1XCinema torrent

AD_BLOCK


Download Torrent "One Punch Man S02E05 (1080p WEBRip x265 HEVC 10bit AAC 2.0 theincognito) [U..."

IMDB Details
Description:

N/A

Genre:

N/A

Download Torrent (Magnet)
Download Torrent (File)
Seeds: 1,377
Leechers: 107
Completed: 11,281 
Last Checked: 08-05-2019 02:24:57


Details
Title:One Punch Man S02E05 (1080p WEBRip x265 HEVC 10bit AAC 2.0 theincognito) [U...
Description:




Format                                   : Matroska
Format version                           : Version 4
File size                                : 214 MiB
Duration                                 : 23 min 52 s
Overall bit rate                         : 1 251 kb/s
Encoded date                             : UTC 2019-05-08 00:22:47
Writing application                      : mkvmerge v33.1.0 ('Primrose') 64-bit
Writing library                          : libebml v1.3.7 + libmatroska v1.5.0

Video
ID                                       : 1
Format                                   : HEVC
Format/Info                              : High Efficiency Video Coding
Format profile                           : Main [email protected]@Main
Codec ID                                 : V_MPEGH/ISO/HEVC
Duration                                 : 23 min 50 s
Bit rate                                 : 1 121 kb/s
Width                                    : 1 920 pixels
Height                                   : 1 080 pixels
Display aspect ratio                     : 16:9
Frame rate mode                          : Constant
Frame rate                               : 23.976 (24000/1001) FPS
Color space                              : YUV
Chroma subsampling                       : 4:2:0
Bit depth                                : 10 bits
Bits/(Pixel*Frame)                       : 0.023
Stream size                              : 191 MiB (90%)
Writing library                          : x265 3.0+1-ed72af837053:[Linux][GCC 6.3.0][64 bit] 10bit
Encoding settings                        : cpuid=1111039 / frame-threads=2 / wpp / no-pmode / no-pme / no-psnr / no-ssim / log-level=2 / input-csp=1 / input-res=1920x1080 / interlace=0 / total-frames=0 / level-idc=0 / high-tier=1 / uhd-bd=0 / ref=3 / no-allow-non-conformance / no-repeat-headers / annexb / no-aud / no-hrd / info / hash=0 / no-temporal-layers / open-gop / min-keyint=23 / keyint=250 / gop-lookahead=0 / bframes=8 / b-adapt=2 / b-pyramid / bframe-bias=0 / rc-lookahead=50 / lookahead-slices=6 / scenecut=40 / radl=0 / no-splice / no-intra-refresh / ctu=64 / min-cu-size=8 / no-rect / no-amp / max-tu-size=32 / tu-inter-depth=1 / tu-intra-depth=1 / limit-tu=0 / rdoq-level=0 / dynamic-rd=0.00 / no-ssim-rd / signhide / no-tskip / nr-intra=0 / nr-inter=0 / no-constrained-intra / strong-intra-smoothing / max-merge=2 / limit-refs=3 / no-limit-modes / me=1 / subme=2 / merange=57 / temporal-mvp / weightp / no-weightb / no-analyze-src-pics / deblock=1:1 / sao / no-sao-non-deblock / rd=3 / no-early-skip / rskip / no-fast-intra / no-tskip-fast / no-cu-lossless / no-b-intra / no-splitrd-skip / rdpenalty=0 / psy-rd=0.40 / psy-rdoq=0.00 / no-rd-refine / no-lossless / cbqpoffs=0 / crqpoffs=0 / rc=crf / crf=23.0 / qcomp=0.60 / qpstep=4 / stats-write=0 / stats-read=0 / ipratio=1.40 / pbratio=1.30 / aq-mode=3 / aq-strength=0.40 / cutree / zone-count=0 / no-strict-cbr / qg-size=32 / no-rc-grain / qpmax=69 / qpmin=0 / no-const-vbv / sar=1 / overscan=0 / videoformat=5 / range=0 / colorprim=2 / transfer=2 / colormatrix=2 / chromaloc=0 / display-window=0 / max-cll=0,0 / min-luma=0 / max-luma=1023 / log2-max-poc-lsb=8 / vui-timing-info / vui-hrd-info / slices=1 / no-opt-qp-pps / no-opt-ref-list-length-pps / no-multi-pass-opt-rps / scenecut-bias=0.05 / no-opt-cu-delta-qp / aq-motion / no-hdr / no-hdr-opt / no-dhdr10-opt / no-idr-recovery-sei / analysis-reuse-level=5 / scale-factor=0 / refine-intra=0 / refine-inter=0 / refine-mv=0 / refine-ctu-distortion=0 / no-limit-sao / ctu-info=0 / no-lowpass-dct / refine-analysis-type=0 / copy-pic=1 / max-ausize-factor=1.0 / no-dynamic-refine / no-single-sei / no-hevc-aq / qp-adaptation-range=1.00
Default                                  : Yes
Forced                                   : No

Audio
ID                                       : 2
Format                                   : AAC LC
Format/Info                              : Advanced Audio Codec Low Complexity
Codec ID                                 : A_AAC-2
Duration                                 : 23 min 50 s
Bit rate                                 : 128 kb/s
Channel(s)                               : 2 channels
Channel layout                           : L R
Sampling rate                            : 44.1 kHz
Frame rate                               : 43.066 FPS (1024 SPF)
Compression mode                         : Lossy
Delay relative to video                  : -83 ms
Stream size                              : 21.8 MiB (10%)
Language                                 : Japanese
Default                                  : Yes
Forced                                   : No

Text #1
ID                                       : 3
Format                                   : ASS
Codec ID                                 : S_TEXT/ASS
Codec ID/Info                            : Advanced Sub Station Alpha
Duration                                 : 23 min 49 s
Bit rate                                 : 151 b/s
Count of elements                        : 385
Compression mode                         : Lossless
Stream size                              : 26.4 KiB (0%)
Title                                    : English(US)
Language                                 : English
Default                                  : Yes
Forced                                   : No

Text #2
ID                                       : 4
Format                                   : ASS
Codec ID                                 : S_TEXT/ASS
Codec ID/Info                            : Advanced Sub Station Alpha
Duration                                 : 23 min 49 s
Bit rate                                 : 194 b/s
Count of elements                        : 385
Compression mode                         : Lossless
Stream size                              : 33.9 KiB (0%)
Title                                    : Arabic
Language                                 : Arabic
Default                                  : No
Forced                                   : No

Text #3
ID                                       : 5
Format                                   : ASS
Codec ID                                 : S_TEXT/ASS
Codec ID/Info                            : Advanced Sub Station Alpha
Duration                                 : 23 min 51 s
Bit rate                                 : 131 b/s
Count of elements                        : 354
Compression mode                         : Lossless
Stream size                              : 22.9 KiB (0%)
Title                                    : Espanol(Espana)
Language                                 : Spanish
Default                                  : No
Forced                                   : No

Text #4
ID                                       : 6
Format                                   : ASS
Codec ID                                 : S_TEXT/ASS
Codec ID/Info                            : Advanced Sub Station Alpha
Duration                                 : 23 min 51 s
Bit rate                                 : 245 b/s
Count of elements                        : 396
Compression mode                         : Lossless
Stream size                              : 42.8 KiB (0%)
Title                                    : Russian
Language                                 : Russian
Default                                  : No
Forced                                   : No


Category:Anime > Dubbed/Subbed
Lang:Japanese  Japanese
Total Size:214 MB
Info Hash:f502389932c8923b2b501028c2b243f1bb1105ad
Added By:theincognito
Date Added:08-05-2019 02:24:53

Files

File List: 
 File Size
One.Punch.Man.S02E05.1080p.WEBRip.x265.HEVC.10bit.AAC.2.0-theincognito[UTR].mkv214 MB



Comments

There are currently no comments. Be the first one to write something !

Disclaimer: None of the files shown here are actually hosted or transmitted by this server. The links are provided solely by this site's users. The site moderation is also a service provided by the site's users. The administrator of this site (ettv.be) cannot be held responsible for what its users post, or any other actions of its users. You may not use this site to distribute or download any material when you do not have the legal rights to do so. It is your own responsibility to adhere to these terms.