2.0 (2018) toy story 4 peaky blinders s05e05 men in black international 2019 萝莉 big bang theory español dark phoenix 2019 ready or not 2019 ethd Last Week Tonight anal fast furious presents hobbs shaw 2019 the lion king 2019 ddr proper kabir singh ettv scary stories to tell in the dark 2019 Anna  spider man far from home 2019 ballers anna 2019 avengers endgame 2019 godzilla king of the monsters 2019 0 it chapter two 2019 Titans s02e02 angel has fallen 2019 joker 2019 HINDI it 2017 47 meters down uncaged 2019 ad astra 2019 spiderman Succession love hip hop hollywood s06e07 wwe yesterday 2019 preacher toy story 4 2019 Fear The Walking Dead once upon a time in hollywood 2019 hustlers 2019 the deuce etmovies Survivor power s06e03 幼女 preacher s04e08 xxx etrg good boys 2019 aladdin 2019 ballers s05e04 far from home john wick chapter 3 – parabellum 2019 titans spider man far from home spiderman far from home power s06e04 yts fear the walking dead s05e14 evo ma 2019 peaky blinders childs play 2019 the secret life of pets 2 2019 dream girl  Crawl 2019 
Warning! Use a VPN When Downloading Torrents!
Your IP Address is 35.171.146.16. Location is United States
Your Internet Provider is tracking your torrent activity! Hide your IP ADDRESS with a VPN!
We strongly recommend using TrustZone to anonymize your torrenting. 30 Day Money Back Guarantee!
Try it Now!
ETTV Recommended TV Shows
The.Deuce.S03E02.WEB.H264-STARZ[ettv] torrent
Mayans.M.C.S02E03.WEB.H264-iNSiDiOUS[ettv] torrent
Greenleaf.S04E02.WEBRip.x264-TBS[ettv] torrent
Bachelor.In.Paradise.S06E13.WEB.x264-TBS[ettv] torrent

ETTV Recommended SD
A.Score.to.Settle.2019.BRRip.XViD-ETRG torrent
Mayday.2019.HDRip.XviD.AC3-EVO[EtMovies] torrent
Annabelle Comes Home.2019.HDRip.XViD-ETRG torrent
Rogue.Cell.2019.HDRip.XviD.AC3-EVO torrent

ETTV Recommended HD
A.Score.to.Settle.2019.1080p.BluRay.x264-ROVERS[EtHD] torrent
Annabelle Comes Home.2019.1080p.WEB-DL.H264.AC3-EVO[EtHD] torrent
Spider-Man.Far.from.Home.2019.1080p.AMZN.WEB-DL.DDP5.1.H.264-NTG[EtHD] torrent
Live.By.Night.2016.BDRip.1080p.x264.Multilang.TrueHD.DTS.DD5.1.Gerald torrent

ETTV Recommended UHD
Power Rangers 2017.MULTi.UHD.Blu-ray.2160p.HDR.Atmos.7.1.HEVC-DDR torrent
Smurfs - The Lost Village 2017.MULTi.UHD.Blu-ray.2160p.HDR.Atmos.7.1.HEVC-DDR torrent
Resident Evil Vendetta 2017.MULTi.UHD.Blu-ray.2160p.HDR.Atmos.7.1.HEVC-DDR torrent
Rough Night.2017.MULTi.UHD.Blu-ray.2160p.HDR.Atmos.7.1.HEVC-DDR torrent

ETTV Recommended Cam
Ready or Not 2019 HDCAM x264 AC3-ETRG torrent
It Chapter Two 2019.HDCAM.x264.AC3-ETRG torrent
Downton Abbey 2019 720p HDCAM-GETB8 torrent
Hustlers 2019 HDCAM x264 AC3-ETRG torrent

ETTV Recommended Foreign
U Turn (2018) 720p UNCUT HDRip x264 Eng Subs [Dual Audio] [Hindi DD 2.0 - Telugu 5.1] Exclusive By -=!Dr.STAR!=- torrent
The Golden Glove (2019) HDRip 720p [Hindi-Dub] x264 - KatmovieHD torrent
Dream Girl 2019 Hindi 720p Pre-DVD Rip x264 AAC { TaRa }.mkv torrent
Jin-Roh.The.Wolf.Brigade.1999.BDRip 1080p Ita Jap x265-NAHOM torrent


Download Torrent "Marvel Rising - Secret Warriors (2018) 1080p WEBrip x265 multi audio D0ct0..."

IMDB Details
Description:

Marvel Rising: Secret Warriors will launch first as a series of six four-minute digital shorts, with the full film coming to the screen in 2018.

Genre:

Animation, Action, Comedy, Fantasy, Sci-Fi

Download Torrent (Magnet)
Download Torrent (File)
Seeds: 1,973
Leechers: 1,137
Completed: 5,986 
Last Checked: 12-06-2019 20:49:08


Details
Title:Marvel Rising - Secret Warriors (2018) 1080p WEBrip x265 multi audio D0ct0...
Description:






Sources Marvel Rising - Secret Warriors (2018) WEBDL LAT - FllorTV (in order to get the 1080p video) & Marvel.Rising.Secret.Warriors.2018.720p.DSNY.WEBRip.AAC2.0.x264-LAZY (to get an English audio)

Media Information

Unique ID                                : 114021980597843340416974239925031207336 (0x55C7D5AD45A97DB384E8D301B37D01A8)
Complete name                            : Marvel Rising - Secret Warriors (2018)  1080p WEBrip x265 multi audio D0ct0rLew[SEV].mkv
Format                                   : Matroska
Format version                           : Version 4
File size                                : 1.23 GiB
Duration                                 : 1 h 20 min
Overall bit rate                         : 2 180 kb/s
Movie name                               : Marvel Rising Secret Warriors D0ct0rLew[SEV]
Encoded date                             : UTC 2019-06-12 13:54:59
Writing application                      : mkvmerge v29.0.0 ('Like It Or Not') 64-bit
Writing library                          : libebml v1.3.6 + libmatroska v1.4.9

Video
ID                                       : 3
Format                                   : HEVC
Format/Info                              : High Efficiency Video Coding
Format profile                           : Main [email protected]@Main
Codec ID                                 : V_MPEGH/ISO/HEVC
Duration                                 : 1 h 20 min
Bit rate                                 : 1 667 kb/s
Width                                    : 1 920 pixels
Height                                   : 1 080 pixels
Display aspect ratio                     : 16:9
Frame rate mode                          : Constant
Frame rate                               : 23.976 (24000/1001) FPS
Color space                              : YUV
Chroma subsampling                       : 4:2:0
Bit depth                                : 10 bits
Bits/(Pixel*Frame)                       : 0.034
Stream size                              : 959 MiB (76%)
Writing library                          : x265 3.0_Au+14-c7e5878bdd31:[Windows][MSVC 1920][64 bit] 10bit
Encoding settings                        : cpuid=1111039 / frame-threads=3 / numa-pools=8 / wpp / no-pmode / no-pme / no-psnr / no-ssim / log-level=2 / input-csp=1 / input-res=1920x1080 / interlace=0 / total-frames=115756 / level-idc=0 / high-tier=1 / uhd-bd=0 / ref=4 / no-allow-non-conformance / no-repeat-headers / annexb / no-aud / no-hrd / info / hash=0 / no-temporal-layers / open-gop / min-keyint=23 / keyint=250 / gop-lookahead=0 / bframes=8 / b-adapt=2 / b-pyramid / bframe-bias=0 / rc-lookahead=90 / lookahead-slices=4 / scenecut=40 / radl=0 / no-splice / no-intra-refresh / ctu=64 / min-cu-size=8 / rect / amp / max-tu-size=32 / tu-inter-depth=1 / tu-intra-depth=1 / limit-tu=0 / rdoq-level=2 / dynamic-rd=0.00 / no-ssim-rd / signhide / no-tskip / nr-intra=0 / nr-inter=0 / no-constrained-intra / no-strong-intra-smoothing / max-merge=3 / limit-refs=3 / limit-modes / me=3 / subme=7 / merange=92 / temporal-mvp / weightp / no-weightb / no-analyze-src-pics / deblock=3:3 / sao / no-sao-non-deblock / rd=4 / no-early-skip / rskip / no-fast-intra / no-tskip-fast / no-cu-lossless / no-b-intra / no-splitrd-skip / rdpenalty=0 / psy-rd=1.00 / psy-rdoq=1.00 / no-rd-refine / no-lossless / cbqpoffs=0 / crqpoffs=0 / rc=crf / crf=21.0 / qcomp=0.60 / qpstep=4 / stats-write=0 / stats-read=0 / ipratio=1.40 / pbratio=1.30 / aq-mode=2 / aq-strength=1.00 / cutree / zone-count=0 / no-strict-cbr / qg-size=32 / no-rc-grain / qpmax=69 / qpmin=0 / no-const-vbv / sar=0 / overscan=0 / videoformat=5 / range=0 / colorprim=2 / transfer=2 / colormatrix=2 / chromaloc=0 / display-window=0 / max-cll=0,0 / min-luma=0 / max-luma=1023 / log2-max-poc-lsb=8 / vui-timing-info / vui-hrd-info / slices=1 / no-opt-qp-pps / no-opt-ref-list-length-pps / no-multi-pass-opt-rps / scenecut-bias=0.05 / no-opt-cu-delta-qp / no-aq-motion / no-hdr / no-hdr-opt / no-dhdr10-opt / no-idr-recovery-sei / analysis-reuse-level=5 / scale-factor=0 / refine-intra=0 / refine-inter=0 / refine-mv=0 / refine-ctu-distortion=0 / no-limit-sao / ctu-info=0 / no-lowpass-dct / refine-analysis-type=0 / copy-pic=1 / max-ausize-factor=1.0 / no-dynamic-refine / no-single-sei / no-hevc-aq / no-svt / qp-adaptation-range=1.00
Default                                  : Yes
Forced                                   : No

Audio #1
ID                                       : 2
Format                                   : AAC LC
Format/Info                              : Advanced Audio Codec Low Complexity
Codec ID                                 : A_AAC-2
Duration                                 : 1 h 20 min
Bit rate                                 : 384 kb/s
Channel(s)                               : 6 channels
Channel layout                           : C L R Ls Rs LFE
Sampling rate                            : 48.0 kHz
Frame rate                               : 46.875 FPS (1024 SPF)
Compression mode                         : Lossy
Delay relative to video                  : 9 ms
Stream size                              : 221 MiB (18%)
Title                                    : latino
Language                                 : Spanish
Default                                  : No
Forced                                   : No

Audio #2
ID                                       : 4
Format                                   : AAC LC SBR
Format/Info                              : Advanced Audio Codec Low Complexity with Spectral Band Replication
Commercial name                          : HE-AAC
Format settings                          : Explicit
Codec ID                                 : A_AAC-2
Duration                                 : 1 h 20 min
Bit rate                                 : 127 kb/s
Channel(s)                               : 2 channels
Channel layout                           : L R
Sampling rate                            : 48.0 kHz
Frame rate                               : 23.438 FPS (2048 SPF)
Compression mode                         : Lossy
Stream size                              : 72.9 MiB (6%)
Language                                 : English
Default                                  : Yes
Forced                                   : No

Text #1
ID                                       : 1
Format                                   : UTF-8
Codec ID                                 : S_TEXT/UTF8
Codec ID/Info                            : UTF-8 Plain Text
Duration                                 : 1 h 20 min
Bit rate                                 : 74 b/s
Count of elements                        : 1401
Stream size                              : 44.0 KiB (0%)
Language                                 : English
Default                                  : Yes
Forced                                   : No

Text #2
ID                                       : 5
Format                                   : UTF-8
Codec ID                                 : S_TEXT/UTF8
Codec ID/Info                            : UTF-8 Plain Text
Duration                                 : 5 s 0 ms
Bit rate                                 : 49 b/s
Count of elements                        : 1
Stream size                              : 31.0 Bytes (0%)
Title                                    : forzado
Language                                 : Spanish
Default                                  : No
Forced                                   : No

We have no issue with individuals posting or re-uploading our torrents on a platform we aren't on. However, if this is something you'd like to do, please do so in a 'as-is' format. We ask that you do not create a new torrent, include all descriptions you see above including the SEV logo, tags, notes and screenshots.
If you'd like to become a permanent poster on a website we don't post to, feel free to get in contact with a Sublime Encoded Video member.

We are recruiting/training new members for SEV & seedbox providers as well as people to help out with subtitles.
As you already know, we deliver quality, so you know the standard.
If you're interested, feel free to contact any of the team members.
Category:Movies > HEVC/x265
Lang:English  English
Total Size:1.23 GB
Info Hash:9b6bbf474a5ddb75375a29044b7965c6eabf1754
Added By:D0ct0rLew
Date Added:12-06-2019 20:49:04

  

Files

File List: 
 File Size
Marvel Rising - Secret Warriors (2018) 1080p WEBrip x265 multi audio D0ct0rLew[SEV].mkv1.23 GB



Loading...
Comments

There are currently no comments. Be the first one to write something !

Disclaimer: None of the files shown here are actually hosted or transmitted by this server. The links are provided solely by this site's users. The site moderation is also a service provided by the site's users. The administrator of this site (ettv.be) cannot be held responsible for what its users post, or any other actions of its users. You may not use this site to distribute or download any material when you do not have the legal rights to do so. It is your own responsibility to adhere to these terms.