Siren S03E10 Birds of Prey (and the Fantabulous Emancipation of One Harley Quinn) 2020 Capone 2020 in the dark hindi Americandad the flash  ETTV rick and morty ethd Jersey Shore Family Vacation S03E26 The Challenge S35E09 yts rick and morty s04e09 WHAT WE DO IN THE SHADOWS the 100 s07e02 Bad Boys for Life 2020 Harley Quinn Gangs of London S01E06 agents of shield defending jacob nascar Blindspot S05E03 AmericasGotTalentS15E01 westworld seal team Space Force S01E01 the 100 supergirl Defending Jacob S01E08 Brazzers Best Of Brazzers 2160p the walking dead Scoob! 2020 hindi 2020 Jeffrey Epstein Filthy Rich S01E01 Marvels Agents of S H I E L D s07e01 the good fight stargirl Survive the Night 2020 rq.mp4 Blindspot space force What We Do in the Shadows s02e08 ddr ita  siren The Wrong Missy 2020 evo marvel week BarkskinsS01E01 snowpiercer stargirl s01e02 Yts legends of tomorrow Outlander billions etmovies Marvels Agents of S.H.I.E.L.D. S07E01 extraction 2020 etrg Locke  minx XXX BadBoysforLife2020 killing eve Transplant WWE  dc week Rick.and.Morty.S04E02.720p.WEBRip.x264-TBS[TGx] 
ETTV Recommended TV Shows
Man.With.a.Plan.S04E11.HDTV.x264-SVA[ettv] torrent
Siren.2018.S03E10.WEB.H264-BTX[ettv] torrent
In.the.Dark.2019.S02E07.HDTV.x264-SVA.ETRG torrent
Blindspot.S05E03.HDTV.x264-SVA.ETRG torrent

ETTV Recommended SD
The.Hunt.2020.BDRip.XviD.AC3-EVO torrent
The.Vast.Of.Night.2020.HDRip.XviD.AC3-EVO torrent
A.Good.Woman.Is.Hard.To.Find.2019.BRRip.XviD.AC3-EVO torrent
Gabriels Inferno.2020.HDRip.XviD.AC3-EVO torrent

ETTV Recommended HD
For.We.Are.Many.2019.1080p.WEBRip.X264.DD.2.0-EVO[EtHD] torrent
Debt.Collectors.2020.1080p.WEBRip.X264.DD.5.1-EVO[EtHD] torrent
Code.of.Thieves.2020.1080p.AMZN.WEB-DL.DDP2.0.H.264-CMRG[EtHD] torrent
Gabriels.Inferno.2020.1080p.WEB-DL.X264.AC3-EVO[EtHD] torrent

ETTV Recommended UHD
Dolittle.2020.HDR10Plus.2160p.UHD.BluRay.x265.iNTERNAL-JustWatch.ETRG torrent
Snitch 2013.MULTi.UHD.Blu-ray.2160p.HDR.Atmos.7.1.HEVC-DDR.mkv torrent
Superman.Red.Son.2020.UHD.BluRay.2160p.HDR.DTS-HDMA.5.1.HEVC-DDR.mkv torrent
The.Vast.of.Night.2019.UHD.2160p.HDR.WebRip.DDP.5.1.HEVC-DDR.mkv torrent

ETTV Recommended Cam
The Hunt 2020 HDCAM x264 AC3-ETRG torrent
The Burnt Orange Heresy 2020 720p HDCAM-C1NEM4 torrent

ETTV Recommended Foreign
Frozen.II.2019.ESTONiAN.1080p.WEBRip.x264-EMX[EtHD] torrent
Golkeri.2020.720p.AMZN.WEB-DL.DD+5.1.x264-Telly torrent
Stinger (2005) 720p BluRay x264 [Dual Audio] [Hindi DD 2.0 - English 5.1] Exclusive By -=!Dr.STAR!=- torrent
Lady Driver (2020) HDRip 720p [Hindi-Dub] Dual-Audio x264 - 1XCinema torrent

AD_BLOCK


Download Torrent "It 2017 1080p BluRay x265 hevc frank"

IMDB Details
Description:

In the summer of 1989, a group of bullied kids band together to destroy a shape-shifting monster, which disguises itself as a clown and preys on the children of Derry, their small Maine town.

Genre:

Horror, Thriller

Download Torrent (Magnet)
Download Torrent (File)
Seeds: 80
Leechers: 3
Completed: 367 
Last Checked: 13-06-2019 01:13:53


Details
Title:It 2017 1080p BluRay x265 hevc frank
Description:



General
Unique ID                                : 271046592234602240442741474157998436867 (0xCBE9ACC1B754FED9D46DA469D848F203)
Complete name                            : /home/albadri39/torrents/rtorrent/It.2017.1080p.BluRay.x265 hevc frank/It.2017.1080p.BluRay.x265 hevc frank.mkv
Format                                   : Matroska
Format version                           : Version 4 / Version 2
File size                                : 1.17 GiB
Duration                                 : 2h 14mn
Overall bit rate                         : 1 248 Kbps
Movie name                               : It.2017.1080p.BluRay.x264.TrueHD.7.1.Atmos-FGT
Encoded date                             : UTC 2019-06-12 21:46:36
Writing application                      : mkvmerge v34.0.0 ('Sight and Seen') 64-bit
Writing library                          : libebml v1.3.7 + libmatroska v1.5.0
Cover                                    : Yes
Attachments                              : cover.jpg / small_cover.jpg / cover_land.jpg / small_cover_land.jpg
Writing frontend                         : StaxRip v2.0.2.0

Video
ID                                       : 1
Format                                   : HEVC
Format/Info                              : High Efficiency Video Coding
Format profile                           : Main [email protected]@Main
Codec ID                                 : V_MPEGH/ISO/HEVC
Duration                                 : 2h 14mn
Bit rate                                 : 901 Kbps
Width                                    : 1 920 pixels
Height                                   : 800 pixels
Display aspect ratio                     : 2.40:1
Frame rate mode                          : Constant
Frame rate                               : 23.976 (24000/1001) fps
Color space                              : YUV
Chroma subsampling                       : 4:2:0
Bit depth                                : 10 bits
Bits/(Pixel*Frame)                       : 0.024
Stream size                              : 868 MiB (72%)
Writing library                          : x265 3.0_Au+24-4217e691387c:[Windows][GCC 9.1.1][64 bit] 10bit
Encoding settings                        : rc=abr / bitrate=900 / qcomp=0.60 / qpstep=4 / stats-write=0 / stats-read=2 / cplxblur=20.0 / qblur=0.5 / qpmax=69 / qpmin=0 / no-lossless / no-cu-lossless / no-hevc-aq / no-aq-motion / aq-mode=2 / aq-strength=1.00 / cbqpoffs=0 / crqpoffs=0 / ipratio=1.40 / pbratio=1.30 / psy-rd=2.00 / psy-rdoq=0.00 / deblock=0:0 / ref=3 / limit-refs=3 / no-limit-modes / bframes=4 / b-adapt=0 / bframe-bias=0 / b-pyramid / no-b-intra / weightp / no-weightb / keyint=250 / min-keyint=23 / rc-lookahead=15 / gop-lookahead=0 / scenecut=40 / scenecut-bias=0.05 / ctu=64 / min-cu-size=8 / me=1 / subme=2 / merange=57 / rd=2 / no-rd-refine / no-ssim-rd / dynamic-rd=0.00 / rdoq-level=0 / rdpenalty=0 / cutree / sao / no-limit-sao / no-sao-non-deblock / no-rect / no-amp / open-gop / max-tu-size=32 / tu-inter-depth=1 / tu-intra-depth=1 / limit-tu=0 / qg-size=32 / wpp / no-pmode / no-pme / no-psnr / no-ssim / no-tskip / no-constrained-intra / strong-intra-smoothing / max-merge=2 / nr-intra=0 / nr-inter=0 / input-csp=1 / input-res=1920x800 / interlace=0 / total-frames=193783 / level-idc=51 / high-tier=1cpuid=1111039 / frame-threads=2 / numa-pools=4 / log-level=2 / uhd-bd=0 / lookahead-slices=5 / radl=0 / no-splice / no-intra-refresh / signhide / temporal-mvp / no-analyze-src-pics / no-early-skip / rskip / fast-intra / no-tskip-fast / no-splitrd-skip / zone-count=0 / no-strict-cbr / no-rc-grain / no-const-vbv / no-allow-non-conformance / no-repeat-headers / annexb / no-aud / no-hrd / info / hash=0 / no-temporal-layers / sar=0 / overscan=0 / videoformat=5 / range=0 / colorprim=2 / transfer=2 / colormatrix=2 / chromaloc=0 / display-window=0 / max-cll=0,0 / min-luma=0 / max-luma=1023 / log2-max-poc-lsb=8 / vui-timing-info / vui-hrd-info / slices=1 / no-opt-qp-pps / no-opt-ref-list-length-pps / no-multi-pass-opt-rps / no-opt-cu-delta-qp / no-hdr / no-hdr-opt / no-dhdr10-opt / no-idr-recovery-sei / analysis-reuse-level=5 / scale-factor=0 / refine-intra=0 / refine-inter=0 / refine-mv=0 / refine-ctu-distortion=0 / ctu-info=0 / no-lowpass-dct / refine-analysis-type=0 / copy-pic=1 / max-ausize-factor=1.0 / no-dynamic-refine / no-single-sei / no-svt / qp-adaptation-range=1.00
Default                                  : Yes
Forced                                   : No

Audio
ID                                       : 2
Format                                   : Opus
Codec ID                                 : A_OPUS
Duration                                 : 2h 14mn
Bit rate                                 : 270 Kbps
Channel(s)                               : 8 channels
Channel positions                        : Front: L C R, Side: L R, Rear: L R, LFE
Sampling rate                            : 48.0 KHz
Frame rate                               : 50.000 fps (960 spf)
Compression mode                         : Lossy
Stream size                              : 260 MiB (22%)
Language                                 : English
Default                                  : No
Forced                                   : No

Text #1
ID                                       : 3
Format                                   : UTF-8
Codec ID                                 : S_TEXT/UTF8
Codec ID/Info                            : UTF-8 Plain Text
Duration                                 : 2h 13mn
Bit rate                                 : 38 bps
Count of elements                        : 1383
Stream size                              : 37.4 KiB (0%)
Language                                 : English
Default                                  : No
Forced                                   : No

Text #2
ID                                       : 4
Format                                   : UTF-8
Codec ID                                 : S_TEXT/UTF8
Codec ID/Info                            : UTF-8 Plain Text
Duration                                 : 2h 14mn
Bit rate                                 : 50 bps
Count of elements                        : 1838
Stream size                              : 49.6 KiB (0%)
Language                                 : English
Default                                  : No
Forced                                   : No

Text #3
ID                                       : 5
Format                                   : PGS
Muxing mode                              : zlib
Codec ID                                 : S_HDMV/PGS
Codec ID/Info                            : Picture based subtitle format used on BDs/HD-DVDs
Duration                                 : 2h 14mn
Bit rate                                 : 31.9 Kbps
Count of elements                        : 3677
Stream size                              : 30.7 MiB (3%)
Language                                 : English
Default                                  : No
Forced                                   : No

Text #4
ID                                       : 6
Format                                   : PGS
Muxing mode                              : zlib
Codec ID                                 : S_HDMV/PGS
Codec ID/Info                            : Picture based subtitle format used on BDs/HD-DVDs
Duration                                 : 2h 13mn
Bit rate                                 : 22.4 Kbps
Count of elements                        : 2829
Stream size                              : 21.4 MiB (2%)
Language                                 : Bulgarian
Default                                  : No
Forced                                   : No

Text #5
ID                                       : 7
Format                                   : PGS
Muxing mode                              : zlib
Codec ID                                 : S_HDMV/PGS
Codec ID/Info                            : Picture based subtitle format used on BDs/HD-DVDs
Duration                                 : 2h 13mn
Bit rate                                 : 23.1 Kbps
Count of elements                        : 2803
Stream size                              : 22.1 MiB (2%)
Language                                 : Estonian
Default                                  : No
Forced                                   : No

Text #6
ID                                       : 8
Format                                   : PGS
Muxing mode                              : zlib
Codec ID                                 : S_HDMV/PGS
Codec ID/Info                            : Picture based subtitle format used on BDs/HD-DVDs
Duration                                 : 2h 13mn
Bit rate                                 : 19.2 Kbps
Count of elements                        : 2823
Stream size                              : 18.3 MiB (2%)
Language                                 : Hebrew
Default                                  : No
Forced                                   : No

Text #7
ID                                       : 9
Format                                   : PGS
Muxing mode                              : zlib
Codec ID                                 : S_HDMV/PGS
Codec ID/Info                            : Picture based subtitle format used on BDs/HD-DVDs
Duration                                 : 2h 12mn
Bit rate                                 : 667 bps
Count of elements                        : 100
Stream size                              : 649 KiB (0%)
Language                                 : Hindi
Default                                  : No
Forced                                   : No

Text #8
ID                                       : 10
Format                                   : PGS
Muxing mode                              : zlib
Codec ID                                 : S_HDMV/PGS
Codec ID/Info                            : Picture based subtitle format used on BDs/HD-DVDs
Duration                                 : 2h 7mn
Bit rate                                 : 14.8 Kbps
Count of elements                        : 2685
Stream size                              : 13.5 MiB (1%)
Language                                 : Japanese
Default                                  : No
Forced                                   : No

Text #9
ID                                       : 11
Format                                   : PGS
Muxing mode                              : zlib
Codec ID                                 : S_HDMV/PGS
Codec ID/Info                            : Picture based subtitle format used on BDs/HD-DVDs
Duration                                 : 2h 7mn
Bit rate                                 : 618 bps
Count of elements                        : 420
Stream size                              : 576 KiB (0%)
Language                                 : Japanese
Default                                  : No
Forced                                   : No

Text #10
ID                                       : 12
Format                                   : PGS
Muxing mode                              : zlib
Codec ID                                 : S_HDMV/PGS
Codec ID/Info                            : Picture based subtitle format used on BDs/HD-DVDs
Duration                                 : 2h 13mn
Bit rate                                 : 21.6 Kbps
Count of elements                        : 2825
Stream size                              : 20.6 MiB (2%)
Language                                 : Latvian
Default                                  : No
Forced                                   : No

Text #11
ID                                       : 13
Format                                   : PGS
Muxing mode                              : zlib
Codec ID                                 : S_HDMV/PGS
Codec ID/Info                            : Picture based subtitle format used on BDs/HD-DVDs
Duration                                 : 2h 13mn
Bit rate                                 : 21.4 Kbps
Count of elements                        : 2745
Stream size                              : 20.4 MiB (2%)
Language                                 : Lithuanian
Default                                  : No
Forced                                   : No

Text #12
ID                                       : 14
Format                                   : PGS
Muxing mode                              : zlib
Codec ID                                 : S_HDMV/PGS
Codec ID/Info                            : Picture based subtitle format used on BDs/HD-DVDs
Duration                                 : 2h 13mn
Bit rate                                 : 23.6 Kbps
Count of elements                        : 2811
Stream size                              : 22.5 MiB (2%)
Language                                 : Greek
Default                                  : No
Forced                                   : No

Text #13
ID                                       : 15
Format                                   : PGS
Muxing mode                              : zlib
Codec ID                                 : S_HDMV/PGS
Codec ID/Info                            : Picture based subtitle format used on BDs/HD-DVDs
Duration                                 : 2h 13mn
Bit rate                                 : 19.1 Kbps
Count of elements                        : 2023
Stream size                              : 18.2 MiB (2%)
Language                                 : Slovenian
Default                                  : No
Forced                                   : No

Text #14
ID                                       : 16
Format                                   : PGS
Muxing mode                              : zlib
Codec ID                                 : S_HDMV/PGS
Codec ID/Info                            : Picture based subtitle format used on BDs/HD-DVDs
Duration                                 : 2h 13mn
Bit rate                                 : 20.7 Kbps
Count of elements                        : 2550
Stream size                              : 19.7 MiB (2%)
Language                                 : Spanish
Default                                  : No
Forced                                   : No

Text #15
ID                                       : 17
Format                                   : PGS
Muxing mode                              : zlib
Codec ID                                 : S_HDMV/PGS
Codec ID/Info                            : Picture based subtitle format used on BDs/HD-DVDs
Duration                                 : 2h 12mn
Bit rate                                 : 331 bps
Count of elements                        : 38
Stream size                              : 322 KiB (0%)
Language                                 : Spanish
Default                                  : No
Forced                                   : No

Menu
00:00:00.000                             : en:00:00:00.000
00:09:23.646                             : en:00:09:23.646
00:18:31.861                             : en:00:18:31.861
00:28:26.163                             : en:00:28:26.163
00:38:36.981                             : en:00:38:36.981
00:48:19.438                             : en:00:48:19.438
00:59:30.776                             : en:00:59:30.776
01:08:52.795                             : en:01:08:52.795
01:16:58.823                             : en:01:16:58.823
01:26:52.958                             : en:01:26:52.958
01:38:15.306                             : en:01:38:15.306
01:48:40.973                             : en:01:48:40.973
02:04:07.899                             : en:02:04:07.899
02:09:05.655                             : en:02:09:05.655

Category:Movies > HEVC/x265
Lang:English  English
Total Size:1.17 GB
Info Hash:60b28ef9f6de681d9a47d9db79984910136b52ea
Added By:hevcfrank
Date Added:13-06-2019 01:13:49

  

Files

File List: 
 File Size
It.2017.1080p.BluRay.x265 hevc frank.mkv1.17 GB
Readme .txt168.00 B



Comments

There are currently no comments. Be the first one to write something !

Disclaimer: None of the files shown here are actually hosted or transmitted by this server. The links are provided solely by this site's users. The site moderation is also a service provided by the site's users. The administrator of this site (ettv.be) cannot be held responsible for what its users post, or any other actions of its users. You may not use this site to distribute or download any material when you do not have the legal rights to do so. It is your own responsibility to adhere to these terms.