nancy drew aew evo Rick and Morty S04E04 silicon valley knives out 2019 seal team s03e09 survivor gemini man 2019 the mandalorian s01e04 Christmas The Irishman queen slim 2019 etrg ethd see Titans v wars survivor s39e11 angel has fallen 2019 mr robot arrow seal team vikings s06e02 wwe modern family s11e08 stumptown The Morning Show the irishman 2019 hustlers 2019 joker 2019 Vikings nancy drew s01e08 stumptown s01e08 frozen ii 2019 the flash terminator dark fate 2019 rambo last blood 2019 the flash s06e08 supernatural ford v ferrari 2019 xxx marvel week mandalorian maleficent mistress of evil 2019 21 bridges 2019 yts Ad Astra  ncis castle rock south park s23e09 vikings s06e01 etmovies ad astra 2019 batwoman joker the mandalorian treadstone ettv South Park dc week modern family supergirl watchmen proper rick and morty RIVERDALE the walking dead Hindi His Dark Materials ddr arrow s08e07 
Warning! Use a V.P.N when Downloading Torrents!
Your IP Address is 18.207.238.169. Location is United States
Your Internet Provider is tracking your torrent activity! Hide your IP ADDRESS with a V.P.N!
We strongly recommend using ExpressVP-N to anonymize your torrenting. 30 Day Money Back Guarantee!
Try it Now!
ETTV Recommended TV Shows
Nancy.Drew.2019.S01E08.HDTV.x264-SVA[ettv] torrent
Stumptown.S01E08.HDTV.x264-SVA[ettv] torrent
Vikings.S06E01.HDTV.x264-SVA[ettv] torrent
SEAL.Team.S03E09.HDTV.x264-KILLERS[ettv] torrent

ETTV Recommended SD
Amundsen.2019.BDRip.XviD.AC3-EVO[EtMovies] torrent
A.Holiday.Boyfriend.2019.HDRip.XviD.AC3-EVO[EtMovies] torrent
Downton Abbey.2019.BRRip.XviD.AC3-EVO[EtMovies] torrent
The.Dunes.2019.HDRip.XviD.AC3-EVO torrent

ETTV Recommended HD
The.Reliant.2019.1080p.AMZN.WEB-DL.DDP5.1.H.264-NTG[EtHD] torrent
X-Men.Apocalypse.2016.BDRip.1080p.x264.Multilang.TrueHD.DTS.DD5.1.Gerald torrent
Downton.Abbey.2019.BluRay.720p.x264.DTS-HDChina[EtHD] torrent
Ad.Astra.2019.1080p.Bluray.DTS-HD.MA.7.1.X264-EVO[EtHD] torrent

ETTV Recommended UHD
Hustlers.2019.2160p.UHD.BluRay.X265.10bit.HDR.TrueHD.7.1.Atmos-AAAUHD torrent
It.Chapter.Two.2019.2160p.UHD.BluRay.X265.10bit.HDR.TrueHD.7.1.Atmos-AAAUHD torrent
John.Wick.2014.BDRip.2160p.UHD.HDR.Eng.Fre.Spa.TrueHD.DD5.1.Gerald torrent
X-Men.Apocalypse.2016.BDRip.2160p.UHD.HDR.Multilang.TrueHD.DTS.DD5.1.Gerald torrent

ETTV Recommended Cam
Last Christmas 2019 HDCAM x264 AC3-ETRG torrent
Dark Waters 2019 HDCAM x264-ETRG torrent
Blue Story 2019 HDCAM x264 AC3-ETRG torrent
Jay and Silent Bob Reboot 2019 HDCAM x264-ETRG torrent

ETTV Recommended Foreign
Allegiant (2016) 720p BluRay x264 Eng Subs [Dual Audio] [Hindi DD 2.0 - English 2.0] Exclusive By -=!Dr.STAR!=- torrent
Line of Descent.2019.Hindi.1080p.WEB-DL.x264.AAC.Esub -DDR[EtHD] torrent
Kala Shah Kala (2019) Punjabi 720p HDRip x264 AAC - Downloadhub torrent
The Spy Who Dumped Me 2018 x264 720p Esub BluRay Dual Audio English Hindi GOPISAHI torrent


Download Torrent "Us.2019.2160p.BluRay.x265.10bit.HDR.DTS-HD.MA.TrueHD.7.1.Atmos-SWTYBLZ"

IMDB Details
Description:

A family's serene beach vacation turns to chaos when their doppelgängers appear and begin to terrorize them.

Genre:

Horror, Thriller

Download Torrent (Magnet)
Seeds: 220
Leechers: 195
Completed: 5,368 
Last Checked: 15-06-2019 11:43:42


Loading...
Details
Title:Us.2019.2160p.BluRay.x265.10bit.HDR.DTS-HD.MA.TrueHD.7.1.Atmos-SWTYBLZ
Description:
SWEATY BALLZ presents

Us.2019.2160p.BluRay.x265.10bit.HDR.DTS-HD.MA.TrueHD.7.1.Atmos-SWTYBLZ

Screenshots are 8bit SDR









Video
ID : 1
Format : HEVC
Format/Info : High Efficiency Video Coding
Commercial name : HDR10
Format profile : Main [email protected]@High
Codec ID : V_MPEGH/ISO/HEVC
Duration : 1 h 56 min
Bit rate : 11.6 Mb/s
Width : 3 840 pixels
Height : 1 604 pixels
Display aspect ratio : 2.40:1
Frame rate mode : Constant
Frame rate : 23.976 (24000/1001) FPS
Color space : YUV
Chroma subsampling : 4:2:0 (Type 2)
Bit depth : 10 bits
Bits/(Pixel*Frame) : 0.078
Stream size : 9.43 GiB (60%)
Title : Us.2019.2160p.BluRay.x265.10bit.HDR.DTS-HD.MA.TrueHD.7.1.Atmos-SWTYBLZ
Writing library : x265 3.0_Au+10-74a8672ea4f7:[Windows][GCC 8.2.1][64 bit] 10bit
Encoding settings : cpuid=1111039 / frame-threads=16 / numa-pools=24,24,24,24 / wpp / no-pmode / no-pme / no-psnr / no-ssim / log-level=2 / input-csp=1 / input-res=3840x1604 / interlace=0 / total-frames=0 / level-idc=51 / high-tier=1 / uhd-bd=0 / ref=3 / no-allow-non-conformance / repeat-headers / annexb / aud / hrd / info / hash=0 / no-temporal-layers / no-open-gop / min-keyint=1 / keyint=24 / gop-lookahead=0 / bframes=4 / b-adapt=2 / b-pyramid / bframe-bias=0 / rc-lookahead=25 / lookahead-slices=4 / scenecut=40 / radl=0 / no-splice / no-intra-refresh / ctu=64 / min-cu-size=8 / no-rect / no-amp / max-tu-size=32 / tu-inter-depth=1 / tu-intra-depth=1 / limit-tu=0 / rdoq-level=0 / dynamic-rd=0.00 / no-ssim-rd / signhide / no-tskip / nr-intra=0 / nr-inter=0 / no-constrained-intra / strong-intra-smoothing / max-merge=2 / limit-refs=3 / no-limit-modes / me=1 / subme=2 / merange=57 / temporal-mvp / weightp / no-weightb / no-analyze-src-pics / deblock=0:0 / no-sao / no-sao-non-deblock / rd=3 / no-early-skip / rskip / no-fast-intra / no-tskip-fast / no-cu-lossless / no-b-intra / no-splitrd-skip / rdpenalty=0 / psy-rd=2.00 / psy-rdoq=0.00 / no-rd-refine / no-lossless / cbqpoffs=0 / crqpoffs=0 / rc=crf / crf=16.0 / qcomp=0.60 / qpstep=4 / stats-write=0 / stats-read=0 / vbv-maxrate=160000 / vbv-bufsize=160000 / vbv-init=0.9 / crf-max=0.0 / crf-min=0.0 / ipratio=1.40 / pbratio=1.30 / aq-mode=1 / aq-strength=1.00 / cutree / zone-count=0 / no-strict-cbr / qg-size=32 / no-rc-grain / qpmax=69 / qpmin=0 / no-const-vbv / sar=1 / overscan=0 / videoformat=5 / range=0 / colorprim=9 / transfer=16 / colormatrix=9 / chromaloc=1 / chromaloc-top=2 / chromaloc-bottom=2 / display-window=0 / master-display=G(13250,34500)B(7500,3000)R(34000,16000)WP(15635,16450)L(10000000,10) / max-cll=968,840 / min-luma=0 / max-luma=1023 / log2-max-poc-lsb=8 / vui-timing-info / vui-hrd-info / slices=1 / opt-qp-pps / opt-ref-list-length-pps / no-multi-pass-opt-rps / scenecut-bias=0.05 / no-opt-cu-delta-qp / no-aq-motion / hdr / hdr-opt / no-dhdr10-opt / no-idr-recovery-sei / analysis-reuse-level=5 / scale-factor=0 / refine-intra=0 / refine-inter=0 / refine-mv=0 / refine-ctu-distortion=0 / no-limit-sao / ctu-info=0 / no-lowpass-dct / refine-analysis-type=26472 / copy-pic=1 / max-ausize-factor=1.0 / no-dynamic-refine / no-single-sei / no-hevc-aq / no-svt / qp-adaptation-range=1.00
Default : Yes
Forced : No
Color range : Limited
Color primaries : BT.2020
Transfer characteristics : PQ
Matrix coefficients : BT.2020 non-constant
Mastering display color primaries : Display P3
Mastering display luminance : min: 0.0010 cd/m2, max: 1000 cd/m2
Maximum Content Light Level : 968 cd/m2
Maximum Frame-Average Light Level : 840 cd/m2

Audio #1
ID : 2
Format : MLP FBA 16-ch
Format/Info : Meridian Lossless Packing FBA with 16-channel presentation
Commercial name : Dolby TrueHD with Dolby Atmos
Codec ID : A_TRUEHD
Duration : 1 h 56 min
Bit rate mode : Variable
Bit rate : 3 177 kb/s
Maximum bit rate : 4 872 kb/s
Channel(s) : 8 channels
Channel layout : L R C LFE Ls Rs Lb Rb
Sampling rate : 48.0 kHz
Frame rate : 1 200.000 FPS (40 SPF)
Compression mode : Lossless
Stream size : 2.58 GiB (17%)
Title : Us.2019.2160p.BluRay.x265.10bit.HDR.DTS-HD.MA.TrueHD.7.1.Atmos-SWTYBLZ
Language : English
Default : Yes
Forced : No
Number of dynamic objects : 11
Bed channel count : 1 channel
Bed channel configuration : LFE

Audio #2
ID : 3
Format : DTS XLL
Format/Info : Digital Theater Systems
Commercial name : DTS-HD Master Audio
Codec ID : A_DTS
Duration : 1 h 56 min
Bit rate mode : Variable
Bit rate : 3 912 kb/s
Channel(s) : 8 channels
Channel layout : C L R LFE Lb Rb Lss Rss
Sampling rate : 48.0 kHz
Frame rate : 93.750 FPS (512 SPF)
Bit depth : 24 bits
Compression mode : Lossless
Stream size : 3.18 GiB (20%)
Title : Us.2019.2160p.BluRay.x265.10bit.HDR.DTS-HD.MA.TrueHD.7.1.Atmos-SWTYBLZ
Language : English
Default : No
Forced : No

Audio #3
ID : 4
Format : AC-3
Format/Info : Audio Coding 3
Commercial name : Dolby Digital
Codec ID : A_AC3
Duration : 1 h 56 min
Bit rate mode : Constant
Bit rate : 448 kb/s
Channel(s) : 6 channels
Channel layout : L R C LFE Ls Rs
Sampling rate : 48.0 kHz
Frame rate : 31.250 FPS (1536 SPF)
Bit depth : 16 bits
Compression mode : Lossy
Stream size : 373 MiB (2%)
Title : Us.2019.2160p.BluRay.x265.10bit.HDR.DTS-HD.MA.TrueHD.7.1.Atmos-SWTYBLZ
Language : English
Service kind : Complete Main
Default : No
Forced : No

Text #1
ID : 5
Format : UTF-8
Codec ID : S_TEXT/UTF8
Codec ID/Info : UTF-8 Plain Text
Duration : 1 h 52 min
Bit rate : 38 b/s
Count of elements : 1065
Stream size : 31.6 KiB (0%)
Title : English-SRT
Language : English
Default : Yes
Forced : No

Text #2
ID : 6
Format : PGS
Muxing mode : zlib
Codec ID : S_HDMV/PGS
Codec ID/Info : Picture based subtitle format used on BDs/HD-DVDs
Duration : 1 h 53 min
Bit rate : 35.4 kb/s
Count of elements : 2751
Stream size : 28.8 MiB (0%)
Title : English-PGS
Language : English
Default : No
Forced : No

Text #3
ID : 7
Format : PGS
Muxing mode : zlib
Codec ID : S_HDMV/PGS
Codec ID/Info : Picture based subtitle format used on BDs/HD-DVDs
Duration : 1 h 55 min
Bit rate : 22.1 kb/s
Count of elements : 1808
Stream size : 18.3 MiB (0%)
Title : French-PGS
Language : French
Default : No
Forced : No

Text #4
ID : 8
Format : PGS
Muxing mode : zlib
Codec ID : S_HDMV/PGS
Codec ID/Info : Picture based subtitle format used on BDs/HD-DVDs
Duration : 1 h 55 min
Bit rate : 25.2 kb/s
Count of elements : 2100
Stream size : 20.8 MiB (0%)
Title : Spanish-PGS
Language : Spanish
Default : No
Forced : No

Menu
00:00:00.000 : en:Chapter 01
00:06:05.156 : en:Chapter 02
00:11:25.351 : en:Chapter 03
00:17:12.114 : en:Chapter 04
00:23:24.653 : en:Chapter 05
00:29:31.520 : en:Chapter 06
00:36:07.791 : en:Chapter 07
00:41:07.757 : en:Chapter 08
00:48:08.302 : en:Chapter 09
00:55:43.257 : en:Chapter 10
01:03:00.318 : en:Chapter 11
01:07:49.357 : en:Chapter 12
01:14:25.294 : en:Chapter 13
01:20:12.016 : en:Chapter 14
01:25:25.954 : en:Chapter 15
01:29:44.045 : en:Chapter 16
01:35:21.674 : en:Chapter 17
01:40:54.548 : en:Chapter 18
01:47:36.909 : en:Chapter 19
01:52:14.394 : en:Chapter 20

Category:Movies > UltraHD/4K
Lang:English  English
Total Size:15.73 GB
Info Hash:18c25ab9a4b495bb754fd2bc5b41b4ba332356ab
Added By:FreeExchange
Date Added:15-06-2019 11:43:36

  

Files

File List: 
 File Size
RARBG.txt31.00 B
Sample/Sample-UBHM10.mkv80 MB
Us.2019.2160p.BluRay.x265.10bit.HDR.DTS-HD.MA.TrueHD.7.1.Atmos-SWTYBLZ.mkv15.66 GB



Loading...
Comments

There are currently no comments. Be the first one to write something !

Disclaimer: None of the files shown here are actually hosted or transmitted by this server. The links are provided solely by this site's users. The site moderation is also a service provided by the site's users. The administrator of this site (ettv.be) cannot be held responsible for what its users post, or any other actions of its users. You may not use this site to distribute or download any material when you do not have the legal rights to do so. It is your own responsibility to adhere to these terms.