queen of the south s04e07 money heist elementary once upon a time in hollywood 2019 the secret life of pets 2 2019 etrg yts Ettv ddr yellowstone hellboy 2019 ethd john wick 3 shazam 2019 Krypton the handmaids tale s03e09 the lion king 2019 aladdin 2019 long shot 2019 suits Crawl 2019 rocketman 2019 siren s02e14 the lion king swamp thing s01e08 us 2019 Siren hindi suits s09e01 avengers endgame 2019 shaft 2019 2.0 (2018) ma 2019 La casa de papel kabir singh dumbo 2019 swamp thing la casa di carta annabelle comes home 2019 John wick midsommar 2019 the 100 childs play 2019 the intruder 2019 yesterday 2019 avengers endgame big brother s21e11 queen of the south etmovies brightburn 2019 john wick chapter 3 – parabellum 2019 captain marvel 2019 dark phoenix 2019 xxx stranger things elementary s07e09 snowfall s03e02 evo alita battle angel 2019 yellowstone s02e04 dc week stuber 2019 anna 2019 men in black international 2019 The Handmaids Tale la casa de papel season 3 shazam endgame spider man far from home 2019 godzilla king of the monsters 2019 toy story 4 2019 
Warning! Use a VPN When Downloading Torrents!
Your IP Address is 3.92.28.84. Location is United States
Your Internet Provider is tracking your torrent activity! Hide your IP ADDRESS with a VPN!
We strongly recommend using TrustZone to anonymize your torrenting. 30 Day Money Back Guarantee!
Try it Now!
ETTV Recommended TV Shows
Fear.the.Walking.Dead.S05E08.WEB.h264-TBS[ettv] torrent
Marvels.Agents.of.S.H.I.E.L.D.S06E10.HDTV.x264-SVA[ettv] torrent
Jett.S01E06.WEBRip.x264-TBS[ettv] torrent
Killjoys.S05E01.WEB.x264-TBS[ettv] torrent

ETTV Recommended SD
El.Chicano.2019.DVDRip.XviD.AC3-EVO torrent
Purge.Of.Kingdoms.2019.HDRip.AC3.x264-CMRG[EtMovies] torrent
Supervized.2019.HDRip.XviD.AC3-EVO[EtMovies] torrent
The.Big.Bad.Fox.And.Other.Tales.2019.HDRip.XviD.AC3-EVO[EtMovies] torrent

ETTV Recommended HD
Above the Shadows.2019.1080p.WEB-DL.H264.AC3-EVO[EtHD] torrent
Bottom.of.the.9th.2019.1080p.WEB-DL.DD5.1.H264-CMRG[EtHD] torrent
Into.the.Ashes.2019.1080p.WEB-DL.DD5.1.H264-CMRG[EtHD] torrent
Sword.Of.Trust.2019.1080p.WEB-DL.H264.AC3-EVO[EtHD] torrent

ETTV Recommended UHD
Hellboy 2019.MULTi.UHD.BluRay.2160p.HDR.Atmos.7.1.HEVC-DDR torrent
Breakthrough 2019.MULTi.UHD.BluRay.2160p.HEVC.DTS-HD.MA7.1.[En+Hindi+Fr+Sp+Ur+Tur]-DDR torrent
The Quake 2018.MULTI.2160p.HDR.WEBRip.DTS-HDMA.5.1.HEVC-DDR torrent
Moon 2009.MULTi.UHD.Blu-ray.2160p.HDR.Atmos.7.1.HEVC-DDR torrent

ETTV Recommended Cam
Crawl 2019 720p HDCAM-1XBET torrent
Stuber 2019 720p HDCAM-1XBET torrent
Spider-Man Far From Home 2019 HD-TC x264 AC3-ETRG torrent
The Lion King 2019 HDCAM x264 AC3-ETRG torrent

ETTV Recommended Foreign
The Rescuers (1977) x264 720p BluRay Eng Subs {Dual Audio} [Hindi ORG DD 2.0 + English 2.0] Exclusive By DREDD torrent
Jhootha Kahin Ka (2019) 480p PreDVD Rip x264 700MB AAC CineVood Exclusive torrent
Family Of Thakurganj (2019) 480p PreDVD Rip x264 700MB AAC CineVood Exclusive torrent
The Rescuers Down Under (1990) x264 720p BluRay Eng Subs {Dual Audio} [Hindi ORG DD 2.0 + English 2.0] Exclusive By DREDD torrent


Download Torrent "My Neighbors the Yamadas (1999) 1080p BDRip x265 AAC 5.1 Goki [SEV]"

IMDB Details
Description:

The life and misadventures of a family in contemporary Japan.

Genre:

Animation, Comedy, Family

Download Torrent (Magnet)
Download Torrent (File)
Seeds: 49
Leechers: 138
Completed: 69 
Last Checked: 09-07-2019 01:23:29


Loading...
Details
Title:My Neighbors the Yamadas (1999) 1080p BDRip x265 AAC 5.1 Goki [SEV]
Description:




Screenshots





Media Information

Unique ID                                : 23749255044566707652750346395153221001 (0x11DDF0AD5312C59539C0C1F7E22A4589)
Complete name                            : My Neighbors the Yamadas (1999) 1080p BDRip x265 AAC 5.1 Goki [SEV].mkv
Format                                   : Matroska
Format version                           : Version 4
File size                                : 5.88 GiB
Duration                                 : 1 h 43 min
Overall bit rate                         : 8 101 kb/s
Movie name                               : My Neighbors the Yamadas (1999) 1080p BDRip x265 AAC 5.1 Goki [SEV]
Encoded date                             : UTC 2019-07-08 09:06:14
Writing application                      : mkvmerge v28.2.0 ('The Awakening') 64-bit
Writing library                          : libebml v1.3.6 + libmatroska v1.4.9

Video
ID                                       : 1
Format                                   : HEVC
Format/Info                              : High Efficiency Video Coding
Format profile                           : Main [email protected]@Main
Codec ID                                 : V_MPEGH/ISO/HEVC
Duration                                 : 1 h 43 min
Bit rate                                 : 6 935 kb/s
Width                                    : 1 920 pixels
Height                                   : 1 080 pixels
Display aspect ratio                     : 16:9
Frame rate mode                          : Constant
Frame rate                               : 23.976 (23976/1000) FPS
Color space                              : YUV
Chroma subsampling                       : 4:2:0
Bit depth                                : 10 bits
Bits/(Pixel*Frame)                       : 0.139
Stream size                              : 5.02 GiB (85%)
Writing library                          : x265 2.9+8-27d8424c799d:[Windows][GCC 8.2.0][64 bit] 10bit
Encoding settings                        : cpuid=1049071 / frame-threads=3 / numa-pools=8 / wpp / no-pmode / no-pme / no-psnr / no-ssim / log-level=2 / input-csp=1 / input-res=1920x1080 / interlace=0 / total-frames=149291 / level-idc=0 / high-tier=1 / uhd-bd=0 / ref=4 / no-allow-non-conformance / no-repeat-headers / annexb / no-aud / no-hrd / info / hash=0 / no-temporal-layers / open-gop / min-keyint=23 / keyint=250 / gop-lookahead=0 / bframes=8 / b-adapt=2 / b-pyramid / bframe-bias=0 / rc-lookahead=100 / lookahead-slices=4 / scenecut=40 / radl=0 / no-intra-refresh / ctu=64 / min-cu-size=8 / no-rect / no-amp / max-tu-size=32 / tu-inter-depth=2 / tu-intra-depth=2 / limit-tu=4 / rdoq-level=2 / dynamic-rd=0.00 / no-ssim-rd / signhide / no-tskip / nr-intra=0 / nr-inter=0 / no-constrained-intra / no-strong-intra-smoothing / max-merge=3 / limit-refs=2 / limit-modes / me=3 / subme=5 / merange=57 / temporal-mvp / weightp / weightb / no-analyze-src-pics / deblock=0:0 / sao / no-sao-non-deblock / rd=6 / no-early-skip / rskip / no-fast-intra / no-tskip-fast / no-cu-lossless / b-intra / no-splitrd-skip / rdpenalty=0 / psy-rd=1.30 / psy-rdoq=2.00 / no-rd-refine / no-lossless / cbqpoffs=0 / crqpoffs=0 / rc=crf / crf=17.0 / qcomp=0.60 / qpstep=4 / stats-write=0 / stats-read=0 / ipratio=1.40 / pbratio=1.30 / aq-mode=2 / aq-strength=1.10 / cutree / zone-count=0 / no-strict-cbr / qg-size=32 / no-rc-grain / qpmax=69 / qpmin=0 / no-const-vbv / sar=1 / overscan=0 / videoformat=5 / range=0 / colorprim=2 / transfer=2 / colormatrix=2 / chromaloc=0 / display-window=0 / max-cll=0,0 / min-luma=0 / max-luma=1023 / log2-max-poc-lsb=8 / vui-timing-info / vui-hrd-info / slices=1 / no-opt-qp-pps / no-opt-ref-list-length-pps / no-multi-pass-opt-rps / scenecut-bias=0.05 / no-opt-cu-delta-qp / no-aq-motion / no-hdr / no-hdr-opt / no-dhdr10-opt / no-idr-recovery-sei / analysis-reuse-level=5 / scale-factor=0 / refine-intra=0 / refine-inter=0 / refine-mv=0 / no-limit-sao / ctu-info=0 / no-lowpass-dct / refine-mv-type=0 / copy-pic=1 / max-ausize-factor=1.0 / no-dynamic-refine / no-single-sei
Language                                 : English
Default                                  : Yes
Forced                                   : No

Audio #1
ID                                       : 2
Format                                   : AAC LC
Format/Info                              : Advanced Audio Codec Low Complexity
Codec ID                                 : A_AAC-2
Duration                                 : 1 h 43 min
Bit rate                                 : 576 kb/s
Channel(s)                               : 6 channels
Channel layout                           : C L R Ls Rs LFE
Sampling rate                            : 48.0 kHz
Frame rate                               : 46.875 FPS (1024 SPF)
Compression mode                         : Lossy
Delay relative to video                  : 9 ms
Stream size                              : 428 MiB (7%)
Title                                    : English AAC 5.1
Language                                 : English
Default                                  : Yes
Forced                                   : No

Audio #2
ID                                       : 3
Format                                   : AAC LC
Format/Info                              : Advanced Audio Codec Low Complexity
Codec ID                                 : A_AAC-2
Duration                                 : 1 h 43 min
Bit rate                                 : 576 kb/s
Channel(s)                               : 6 channels
Channel layout                           : C L R Ls Rs LFE
Sampling rate                            : 48.0 kHz
Frame rate                               : 46.875 FPS (1024 SPF)
Compression mode                         : Lossy
Delay relative to video                  : 9 ms
Stream size                              : 427 MiB (7%)
Title                                    : Japanese AAC 5.1
Language                                 : English
Default                                  : No
Forced                                   : No

Text #1
ID                                       : 4
Format                                   : UTF-8
Codec ID                                 : S_TEXT/UTF8
Codec ID/Info                            : UTF-8 Plain Text
Duration                                 : 1 h 43 min
Bit rate                                 : 37 b/s
Count of elements                        : 1092
Stream size                              : 28.4 KiB (0%)
Title                                    : English SRT by BlazeSeven(SEV)
Language                                 : English
Default                                  : No
Forced                                   : No

Text #2
ID                                       : 5
Format                                   : PGS
Codec ID                                 : S_HDMV/PGS
Codec ID/Info                            : Picture based subtitle format used on BDs/HD-DVDs
Duration                                 : 1 h 43 min
Bit rate                                 : 29.9 kb/s
Count of elements                        : 2207
Stream size                              : 22.1 MiB (0%)
Title                                    : English PGS
Language                                 : English
Default                                  : No
Forced                                   : No

Menu
00:00:00.000                             : en:Chapter 01
00:11:27.019                             : en:Chapter 02
00:22:39.691                             : en:Chapter 03
00:26:40.098                             : en:Chapter 04
00:32:42.293                             : en:Chapter 05
00:36:31.564                             : en:Chapter 06
00:38:42.278                             : en:Chapter 07
00:41:20.561                             : en:Chapter 08
00:44:34.171                             : en:Chapter 09
00:46:24.615                             : en:Chapter 10
00:48:27.362                             : en:Chapter 11
00:52:19.511                             : en:Chapter 12
00:53:09.311                             : en:Chapter 13
00:56:32.013                             : en:Chapter 14
01:00:37.967                             : en:Chapter 15
01:06:50.256                             : en:Chapter 16
01:10:04.325                             : en:Chapter 17
01:12:08.824                             : en:Chapter 18
01:25:46.683                             : en:Chapter 19
01:35:10.246                             : en:Chapter 20

Source Information

Bluray

.........................................................................................................................................

We have no issue with individuals posting or re-uploading our torrents on a platform we aren't on. However, if this is something you'd like to do, please do so in a 'as-is' format. We ask that you do not create a new torrent, include all descriptions you see above including the SEV logo, tags, notes and screenshots. If you'd like to become a permanent poster on a website we don't post to, feel free to get in contact with a Sublime Encoded Video member.


We are recruiting/training new members for SEV & seedbox providers as well as people to help out with subtitles.
As you already know, we deliver quality, so you know the standard.
If you're interested, feel free to contact any of the team members.

Category:Anime > Dubbed/Subbed
Lang:English  English
Total Size:5.88 GB
Info Hash:d1916b942f96d391ceb9287e6d6b58f79d7c2708
Added By:Goki
Date Added:09-07-2019 01:23:26

Files

File List: 
 File Size
My Neighbors the Yamadas (1999) 1080p BDRip x265 AAC 5.1 Goki [SEV]-banner.jpg195.61 kB
My Neighbors the Yamadas (1999) 1080p BDRip x265 AAC 5.1 Goki [SEV]-clearart.png556.83 kB
My Neighbors the Yamadas (1999) 1080p BDRip x265 AAC 5.1 Goki [SEV]-clearlogo.png131.42 kB
My Neighbors the Yamadas (1999) 1080p BDRip x265 AAC 5.1 Goki [SEV]-disc.png322.74 kB
My Neighbors the Yamadas (1999) 1080p BDRip x265 AAC 5.1 Goki [SEV]-fanart.jpg766.47 kB
My Neighbors the Yamadas (1999) 1080p BDRip x265 AAC 5.1 Goki [SEV]-logo.png131.42 kB
My Neighbors the Yamadas (1999) 1080p BDRip x265 AAC 5.1 Goki [SEV]-poster.jpg81.68 kB
My Neighbors the Yamadas (1999) 1080p BDRip x265 AAC 5.1 Goki [SEV]-thumb.jpg581.42 kB
My Neighbors the Yamadas (1999) 1080p BDRip x265 AAC 5.1 Goki [SEV].mkv5.88 GB
My Neighbors the Yamadas (1999) 1080p BDRip x265 AAC 5.1 Goki [SEV].nfo5.37 kB



Loading...
Comments

There are currently no comments. Be the first one to write something !

Disclaimer: None of the files shown here are actually hosted or transmitted by this server. The links are provided solely by this site's users. The site moderation is also a service provided by the site's users. The administrator of this site (ettv.be) cannot be held responsible for what its users post, or any other actions of its users. You may not use this site to distribute or download any material when you do not have the legal rights to do so. It is your own responsibility to adhere to these terms.