bull BATWOMAN proper godfather of harlem s01e03 all rise s01e04 0 zombieland double tap 2019 mr robot s04e02 bull s04e04 etmovies ncis it chapter two 2019 The Lion King power s06e08 scary stories to tell in the dark 2019 the flash  spider man far from home 2019 all american s02e02 toy story 4 2019 joker 2019 prodigal son 9 1 1 s03e04 el camino the addams family None MR ROBOT love hip hop hollywood s06e11 ballers s05e08 bluff city law s01e04 black lightning s03e02 ddr xxx titans the good doctor s03e04 Evo black lightning the lion king 2019 evo 浆果儿 once upon a time in hollywood 2019 yts fast furious presents hobbs shaw 2019 Ettv etrg supergirl angel has fallen 2019 HINDI 9-1-1 the walking dead s10e02 rambo last blood 2019 south park joker prodigal son s01e04 Power the rookie s02e03 ad astra the irishman 2019 supergirl s05e02 The Deuce wwe ethd the walking dead avengers endgame 2019 titans s02e06 el camino a breaking bad movie 2019 batwoman s01e02 succession gemini man 2019 Ballers the good doctor hustlers 2019 
Warning! Use a VPN,When Downloading Torrents!
Your IP Address is 3.85.245.126. Location is United States
Your Internet Provider is tracking your torrent activity! Hide your IP ADDRESS with a VPN!
We strongly recommend using ExpressVPN to anonymize your torrenting. 30 Day Money Back Guarantee!
Try it Now!
ETTV Recommended TV Shows
9-1-1.S03E04.PROPER.WEB.x264-TBS[ettv] torrent
WWE Monday Night Raw 2019 10 14 HDTV x264-NWCHD [TJET] torrent
All.Rise.S01E04.HDTV.x264-KILLERS[ettv] torrent
Bull.2016.S04E04.HDTV.x264-BATV[ettv] torrent
Black.Lightning.S03E02.HDTV.x264-KILLERS[ettv] torrent
The.Deuce.S03E06.WEB.h264-TBS[ettv] torrent

ETTV Recommended SD
The.Drone.2019.HDRip.XviD.AC3-EVO torrent
100.Acres.Of.Hell.2019.HDRip.XviD.AC3-EVO torrent
Portal.2019.HDRip.XViD-ETRG torrent
The Catcher Was a Spy.2019.BDRip.XviD.AC3-EVO torrent

ETTV Recommended HD
Crawl.2019.MULTi.BluRay.1080p.DTS-HD.MA.7.1.HEVC-DDR[EtHD] torrent
Shadow.Wolves.2019.1080p.Blu-ray.DTS-HD.MA.5.1.HEVC-DDR[EtHD] torrent
Among.Thieves.2019.1080p.WEB-DL.H264.AC3-EVO[EtHD] torrent
The Catcher Was a Spy.2019.1080p.Bluray.X264-EVO[EtHD] torrent

ETTV Recommended UHD
Scarface.1983.MULTi.UHD.Blu-ray.2160p.HDR.DTS-X.7.1.HEVC-DDR torrent
Hellboy 2004.MULTi.UHD.Blu-ray.2160p.HDR.Atmos.7.1.HEVC-DDR torrent
The.Death.and.Return.of.Superman.2019.MULTi.UHD.Blu-ray.2160p.HDR.DTS-HDMA.5.1.HEVC-DDR torrent
American.Gangster.2007.MULTi.UHD.Blu-ray.2160p.HDR.DTS-X.7.1.HEVC.DDR torrent

ETTV Recommended Cam
Zombieland Double Tap 2019 720p HDCAM-GETB8 torrent
The Addams Family 2019 720p HDCAM-GETB8 torrent
Dora and the Lost City of Gold 2019 720p NEW HDCAM-GETB8 torrent
Joker.2019.HDTS.x264.AC3-ETRG torrent

ETTV Recommended Foreign
War.2019.Hindi.1CD.Pre.Rip.XviD.MP3.Multi.SuB.DusIcTv torrent
La.camarista.2018.REPACK.1080p.AMZN.WEB-DL.DDP5.1.H.264-NTG[EtHD] torrent
Little Monsters (2019) 720p HDRip [Hindi-Dub] Dul-Audio x264 1XBET - KatmovieHD torrent
Asterix And Obelix Mansion Of The Gods (2014) x264 720p UNCUT BluRay [Hindi ORG DD 2.0 + ENG 2.0] Exclusive By DREDD torrent


Download Torrent "My Neighbors the Yamadas (1999) 1080p BDRip x265 FLAC 5.1 Goki [SEV]"

IMDB Details
Description:

The life and misadventures of a family in contemporary Japan.

Genre:

Animation, Comedy, Family

Download Torrent (Magnet)
Download Torrent (File)
Seeds: 21
Leechers: 40
Completed: 50 
Last Checked: 09-07-2019 01:23:36


Loading...
Details
Title:My Neighbors the Yamadas (1999) 1080p BDRip x265 FLAC 5.1 Goki [SEV]
Description:




Screenshots





Media Information

Unique ID                                : 228294480488509494772695124133733539527 (0xABBFEAE88FE0823296C214D7394D1EC7)
Complete name                            : My Neighbors the Yamadas (1999) 1080p BDRip x265 FLAC 5.1 Goki [SEV].mkv
Format                                   : Matroska
Format version                           : Version 4
File size                                : 8.78 GiB
Duration                                 : 1 h 43 min
Overall bit rate mode                    : Variable
Overall bit rate                         : 12.1 Mb/s
Movie name                               : My Neighbors the Yamadas (1999) 1080p BDRip x265 FLAC 5.1 Goki [SEV]
Encoded date                             : UTC 2019-07-08 09:16:53
Writing application                      : mkvmerge v28.2.0 ('The Awakening') 64-bit
Writing library                          : libebml v1.3.6 + libmatroska v1.4.9

Video
ID                                       : 1
Format                                   : HEVC
Format/Info                              : High Efficiency Video Coding
Format profile                           : Main [email protected]@Main
Codec ID                                 : V_MPEGH/ISO/HEVC
Duration                                 : 1 h 43 min
Bit rate                                 : 6 935 kb/s
Width                                    : 1 920 pixels
Height                                   : 1 080 pixels
Display aspect ratio                     : 16:9
Frame rate mode                          : Constant
Frame rate                               : 23.976 (23976/1000) FPS
Color space                              : YUV
Chroma subsampling                       : 4:2:0
Bit depth                                : 10 bits
Bits/(Pixel*Frame)                       : 0.139
Stream size                              : 5.02 GiB (57%)
Writing library                          : x265 2.9+8-27d8424c799d:[Windows][GCC 8.2.0][64 bit] 10bit
Encoding settings                        : cpuid=1049071 / frame-threads=3 / numa-pools=8 / wpp / no-pmode / no-pme / no-psnr / no-ssim / log-level=2 / input-csp=1 / input-res=1920x1080 / interlace=0 / total-frames=149291 / level-idc=0 / high-tier=1 / uhd-bd=0 / ref=4 / no-allow-non-conformance / no-repeat-headers / annexb / no-aud / no-hrd / info / hash=0 / no-temporal-layers / open-gop / min-keyint=23 / keyint=250 / gop-lookahead=0 / bframes=8 / b-adapt=2 / b-pyramid / bframe-bias=0 / rc-lookahead=100 / lookahead-slices=4 / scenecut=40 / radl=0 / no-intra-refresh / ctu=64 / min-cu-size=8 / no-rect / no-amp / max-tu-size=32 / tu-inter-depth=2 / tu-intra-depth=2 / limit-tu=4 / rdoq-level=2 / dynamic-rd=0.00 / no-ssim-rd / signhide / no-tskip / nr-intra=0 / nr-inter=0 / no-constrained-intra / no-strong-intra-smoothing / max-merge=3 / limit-refs=2 / limit-modes / me=3 / subme=5 / merange=57 / temporal-mvp / weightp / weightb / no-analyze-src-pics / deblock=0:0 / sao / no-sao-non-deblock / rd=6 / no-early-skip / rskip / no-fast-intra / no-tskip-fast / no-cu-lossless / b-intra / no-splitrd-skip / rdpenalty=0 / psy-rd=1.30 / psy-rdoq=2.00 / no-rd-refine / no-lossless / cbqpoffs=0 / crqpoffs=0 / rc=crf / crf=17.0 / qcomp=0.60 / qpstep=4 / stats-write=0 / stats-read=0 / ipratio=1.40 / pbratio=1.30 / aq-mode=2 / aq-strength=1.10 / cutree / zone-count=0 / no-strict-cbr / qg-size=32 / no-rc-grain / qpmax=69 / qpmin=0 / no-const-vbv / sar=1 / overscan=0 / videoformat=5 / range=0 / colorprim=2 / transfer=2 / colormatrix=2 / chromaloc=0 / display-window=0 / max-cll=0,0 / min-luma=0 / max-luma=1023 / log2-max-poc-lsb=8 / vui-timing-info / vui-hrd-info / slices=1 / no-opt-qp-pps / no-opt-ref-list-length-pps / no-multi-pass-opt-rps / scenecut-bias=0.05 / no-opt-cu-delta-qp / no-aq-motion / no-hdr / no-hdr-opt / no-dhdr10-opt / no-idr-recovery-sei / analysis-reuse-level=5 / scale-factor=0 / refine-intra=0 / refine-inter=0 / refine-mv=0 / no-limit-sao / ctu-info=0 / no-lowpass-dct / refine-mv-type=0 / copy-pic=1 / max-ausize-factor=1.0 / no-dynamic-refine / no-single-sei
Language                                 : English
Default                                  : Yes
Forced                                   : No

Audio #1
ID                                       : 2
Format                                   : FLAC
Format/Info                              : Free Lossless Audio Codec
Codec ID                                 : A_FLAC
Duration                                 : 1 h 43 min
Bit rate mode                            : Variable
Bit rate                                 : 3 696 kb/s
Channel(s)                               : 6 channels
Channel layout                           : L R C LFE Ls Rs
Sampling rate                            : 48.0 kHz
Frame rate                               : 10.417 FPS (4608 SPF)
Bit depth                                : 24 bits
Compression mode                         : Lossless
Stream size                              : 2.68 GiB (31%)
Title                                    : English FLAC 5.1
Writing library                          : MakeMKV v1.14.2 win(x64-release)
Language                                 : English
Default                                  : Yes
Forced                                   : No

Audio #2
ID                                       : 3
Format                                   : FLAC
Format/Info                              : Free Lossless Audio Codec
Codec ID                                 : A_FLAC
Duration                                 : 1 h 43 min
Bit rate mode                            : Variable
Bit rate                                 : 1 457 kb/s
Channel(s)                               : 6 channels
Channel layout                           : L R C LFE Ls Rs
Sampling rate                            : 48.0 kHz
Frame rate                               : 10.417 FPS (4608 SPF)
Bit depth                                : 16 bits
Compression mode                         : Lossless
Stream size                              : 1.05 GiB (12%)
Title                                    : Japanese FLAC 5.1
Writing library                          : MakeMKV v1.14.2 win(x64-release)
Language                                 : Japanese
Default                                  : No
Forced                                   : No

Text #1
ID                                       : 4
Format                                   : UTF-8
Codec ID                                 : S_TEXT/UTF8
Codec ID/Info                            : UTF-8 Plain Text
Duration                                 : 1 h 43 min
Bit rate                                 : 37 b/s
Count of elements                        : 1092
Stream size                              : 28.4 KiB (0%)
Title                                    : English SRT by BlazeSeven(SEV)
Language                                 : English
Default                                  : No
Forced                                   : No

Text #2
ID                                       : 5
Format                                   : PGS
Codec ID                                 : S_HDMV/PGS
Codec ID/Info                            : Picture based subtitle format used on BDs/HD-DVDs
Duration                                 : 1 h 43 min
Bit rate                                 : 29.9 kb/s
Count of elements                        : 2207
Stream size                              : 22.1 MiB (0%)
Title                                    : English PGS
Language                                 : English
Default                                  : No
Forced                                   : No

Menu
00:00:00.000                             : en:Chapter 01
00:11:27.019                             : en:Chapter 02
00:22:39.691                             : en:Chapter 03
00:26:40.098                             : en:Chapter 04
00:32:42.293                             : en:Chapter 05
00:36:31.564                             : en:Chapter 06
00:38:42.278                             : en:Chapter 07
00:41:20.561                             : en:Chapter 08
00:44:34.171                             : en:Chapter 09
00:46:24.615                             : en:Chapter 10
00:48:27.362                             : en:Chapter 11
00:52:19.511                             : en:Chapter 12
00:53:09.311                             : en:Chapter 13
00:56:32.013                             : en:Chapter 14
01:00:37.967                             : en:Chapter 15
01:06:50.256                             : en:Chapter 16
01:10:04.325                             : en:Chapter 17
01:12:08.824                             : en:Chapter 18
01:25:46.683                             : en:Chapter 19
01:35:10.246                             : en:Chapter 20

Source Information

Bluray

.........................................................................................................................................

We have no issue with individuals posting or re-uploading our torrents on a platform we aren't on. However, if this is something you'd like to do, please do so in a 'as-is' format. We ask that you do not create a new torrent, include all descriptions you see above including the SEV logo, tags, notes and screenshots. If you'd like to become a permanent poster on a website we don't post to, feel free to get in contact with a Sublime Encoded Video member.


We are recruiting/training new members for SEV & seedbox providers as well as people to help out with subtitles.
As you already know, we deliver quality, so you know the standard.
If you're interested, feel free to contact any of the team members.

Category:Anime > Dubbed/Subbed
Lang:English  English
Total Size:8.78 GB
Info Hash:9bbdb051193adfec2fa58af6791720e16c545048
Added By:Goki
Date Added:09-07-2019 01:23:33

Files

File List: 
 File Size
My Neighbors the Yamadas (1999) 1080p BDRip x265 FLAC 5.1 Goki [SEV]-banner.jpg195.61 kB
My Neighbors the Yamadas (1999) 1080p BDRip x265 FLAC 5.1 Goki [SEV]-clearart.png556.83 kB
My Neighbors the Yamadas (1999) 1080p BDRip x265 FLAC 5.1 Goki [SEV]-clearlogo.png131.42 kB
My Neighbors the Yamadas (1999) 1080p BDRip x265 FLAC 5.1 Goki [SEV]-disc.png322.74 kB
My Neighbors the Yamadas (1999) 1080p BDRip x265 FLAC 5.1 Goki [SEV]-fanart.jpg766.47 kB
My Neighbors the Yamadas (1999) 1080p BDRip x265 FLAC 5.1 Goki [SEV]-logo.png131.42 kB
My Neighbors the Yamadas (1999) 1080p BDRip x265 FLAC 5.1 Goki [SEV]-poster.jpg81.68 kB
My Neighbors the Yamadas (1999) 1080p BDRip x265 FLAC 5.1 Goki [SEV]-thumb.jpg581.42 kB
My Neighbors the Yamadas (1999) 1080p BDRip x265 FLAC 5.1 Goki [SEV].mkv8.78 GB
My Neighbors the Yamadas (1999) 1080p BDRip x265 FLAC 5.1 Goki [SEV].nfo5.37 kB



Loading...
Comments

There are currently no comments. Be the first one to write something !

Disclaimer: None of the files shown here are actually hosted or transmitted by this server. The links are provided solely by this site's users. The site moderation is also a service provided by the site's users. The administrator of this site (ettv.be) cannot be held responsible for what its users post, or any other actions of its users. You may not use this site to distribute or download any material when you do not have the legal rights to do so. It is your own responsibility to adhere to these terms.