harriet 2019 supergirl s05e07 fast furious presents hobbs shaw 2019 the mandalorian s01e01 ncis los angeles s11e08 titans s02e11 zombieland double tap 2019 yts shameless s10e02 shameless terminator dark fate 2019 his dark materials s01e03 etrg the irishman 2019 the crown hustlers 2019 ford v ferrari 2019 south park his dark materials last christmas 2019 Last Week Tonight ray donovan s07e01 Madam Secretary Mandalorian the rookie s02e08 the mandalorian s01e02 angel has fallen 2019 The Rookie watchmen s01e05 formula 1 Gemini Man maleficent mistress of evil 2019 angel has fallen mr robot s04e07 the simpsons s31e07 the walking dead s10e07 Watchmen the mandalorian etmovies supergirl big bang theory español ddr rambo last blood 2019 The Flash gemini man 2019 The Simpsons rick and morty RICK MORTY titans joker 2019 Batwoman Family guy  xxx ettv The Morning Show THE WALKING DEAD Hindi once upon a time in hollywood 2019 evo silicon valley S06E04 MR ROBOT see batwoman s01e07 Silicon Valley  walking dead godfather of harlem s01e08 ethd once upon a time in hollywood rick and morty s04e02 joker charlies angels 2019 
Warning! Use a V.P.N when Downloading Torrents!
Your IP Address is 34.237.51.35. Location is United States
Your Internet Provider is tracking your torrent activity! Hide your IP ADDRESS with a V.P.N!
We strongly recommend using ExpressVP-N to anonymize your torrenting. 30 Day Money Back Guarantee!
Try it Now!
ETTV Recommended TV Shows
Bull.2016.S04E08.HDTV.x264-KILLERS[ettv] torrent
WWE Monday Night Raw 2019 11 18 HDTV x264-NWCHD [TJET] torrent
All.Rise.S01E08.WEB.x264-TBS[ettv] torrent
Black.Lightning.S03E06.WEB.h264-TRUMP[ettv] torrent

ETTV Recommended SD
May.I.Be.at.Peace.2019.HDRip.XviD.AC3-EVO[EtMovies] torrent
It.Chapter.Two.2019.HDRip.XviD.AC3-EVO[EtMovies] torrent
The Goldfinch.2019.HDRip.XviD.AC3-EVO[EtMovies] torrent
Killerman.2019.HDRip.XViD-ETRG torrent

ETTV Recommended HD
In.the.Tall.Grass.2019.1080p.NF.WEBRip.DD5.1.x264[EtHD] torrent
Horrible.Histories.The.Movie.Rotten.Romans.2019.1080p.WEB-DL.DD5.1.H264-CMRG[EtHD] torrent
Angel.Has.Fallen.2019.BRRip.1080p.x264.Eng.Fre.TrueHD.DD5.1.Gerald.mkv torrent
It.Chapter.Two.2019.1080p.WEB-DL.H264.AC3-EVO[EtHD] torrent

ETTV Recommended UHD
The Boss Baby 2017.MULTi.UHD.Blu-ray.2160p.HDR.Atmos.7.1.HEVC-DDR torrent
Three.Billboards.Outside.Ebbing.Missouri.2017.MULTi.UHD.Blu-ray.2160p.HDR.DTS-HDMA.5.1.HEVC-DDR torrent
Angel.Has.Fallen.2019.MULTi.UHD.BluRay.2160p.HDR.Atmos.7.1.HEVC-DDR torrent
Midsommar.2019.MULTi.UHD.Bluray.2160p.HDR.DTS-HDMA.5.1.HEVC-DDR torrent

ETTV Recommended Cam
Motherless Brooklyn 2019 NEW HDCAM x264-ETRG torrent
Hustlers 2019 NEW HDTS x264 AC3-ETRG torrent
Ford v Ferrari 2019 NEW HDCAM X264-ETRG torrent
Charlies Angels 2019 NEW HD-TS  x264-ETRG torrent

ETTV Recommended Foreign
Farewell.Song.2019.1080p.BluRay.x264.DTS-WiKi[EtHD] torrent
Main Hoon Na.2004.remastered .Blu-ray.1080p.DD.5.1.HEVC-DDR torrent
Go.The.Unforgettable.Party.2019.iNTERNAL.MULTi.1080p.WEB.x264-CiELOS[EtHD] torrent
Attack On Titan (2015) x264 720p UNRATED BluRay Eng Subs {Dual Audio} [Hindi ORG DD 2.0 + JAP 2.0] Exclusive By DREDD torrent


Download Torrent " Bismillah.2018.720p.WEBRip.x264.AAC.HORiZON-ArtSubs"

IMDB Details
Description:

Samira comes from Tunisia, she's 10 years old and lives in Italy illegally with her father and her brother of 17 years old. One night, she will face up to by oneself a bigger problem than her.

Genre:

Short, Drama

Download Torrent (Magnet)
Download Torrent (File)
Seeds: 182
Leechers: 32
Completed: 857 
Last Checked: 11-07-2019 14:08:28


Loading...
Details
Title: Bismillah.2018.720p.WEBRip.x264.AAC.HORiZON-ArtSubs
Description:
Release: Bismillah.2018.720p.WEBRip.x264.AAC.HORiZON-ArtSubs



IMDB: https://www.imdb.com/title/tt7561772

Subtitle: Italian (Hardcoded)

Plot: Samira comes from Tunisia, she's 10 years old and lives in Italy illegally with her father and her brother of 17 years old. One night, she will face up to by oneself a bigger problem than her.


Complete name: Bismillah.2018.720p.WEBRip.x264.AAC.HORiZON-ArtSubs
Format                      : MPEG-4
Format profile              : Base Media
Codec ID                    : isom (isom/iso2/avc1/mp41)
File size                   : 244 MiB
Duration                    : 14 min 7 s
Overall bit rate            : 2 414 kb/s
Writing application         : Lavf55.33.100

Video
ID                          : 1
Format                      : AVC
Format/Info                 : Advanced Video Codec
Format profile              : [email protected]
Format settings             : 1 Ref Frames
Format settings, CABAC      : No
Format settings, ReFrames   : 1 frame
Format settings, GOP        : M=1, N=50
Codec ID                    : avc1
Codec ID/Info               : Advanced Video Coding
Duration                    : 14 min 7 s
Bit rate                    : 2 400 kb/s
Width                       : 1 280 pixels
Height                      : 720 pixels
Display aspect ratio        : 16:9
Frame rate mode             : Constant
Frame rate                  : 25.000 FPS
Color space                 : YUV
Chroma subsampling          : 4:2:0
Bit depth                   : 8 bits
Scan type                   : Progressive
Bits/(Pixel*Frame)          : 0.104
Stream size                 : 234 MiB (96%)
Writing library             : x264 core 146 r2 121396c
Encoding settings           : cabac=0 / ref=1 / deblock=1:0:0 / analyse=0x1:0x111 / me=hex / subme=5 / psy=1 / psy_rd=1.00:0.00 / mixed_ref=0 / me_range=16 / chroma_me=1 / trellis=1 / 8x8dct=0 / cqm=0 / deadzone=21,11 / fast_pskip=1 / chroma_qp_offset=0 / threads=48 / lookahead_threads=5 / sliced_threads=0 / nr=0 / decimate=1 / interlaced=0 / bluray_compat=0 / constrained_intra=0 / bframes=0 / weightp=2 / keyint=50 / keyint_min=25 / scenecut=40 / intra_refresh=0 / rc_lookahead=40 / rc=abr / mbtree=1 / bitrate=2400 / ratetol=1.0 / qcomp=0.60 / qpmin=10 / qpmax=51 / qpstep=4 / ip_ratio=1.41 / aq=1:1.00
Language                    : English

Audio
ID                          : 2
Format                      : AAC
Format/Info                 : Advanced Audio Codec
Format profile              : LC
Codec ID                    : mp4a-40-2
Duration                    : 14 min 7 s
Duration_LastFrame          : -20 ms
Bit rate mode               : Constant
Bit rate                    : 96.0 kb/s
Channel(s)                  : 2 channels
Channel positions           : Front: L R
Sampling rate               : 44.1 kHz
Frame rate                  : 43.066 FPS (1024 SPF)
Compression mode            : Lossy
Stream size                 : 9.70 MiB (4%)
Language                    : English
Default                     : Yes
Alternate group             : 1


SCREENSHOTS:


Category:Movies > HD 720p
Lang:Arabic  Arabic
Total Size:244 MB
Info Hash:422e793e05880fb95f4c779a326633883e70a73d
Added By:artsubs
Date Added:11-07-2019 14:08:25

  

Files

File List: 
 File Size
Bismillah.2018.720p.WEBRip.x264.AAC.HORiZON-ArtSubs.mp4244 MB



Loading...
Comments

There are currently no comments. Be the first one to write something !

Disclaimer: None of the files shown here are actually hosted or transmitted by this server. The links are provided solely by this site's users. The site moderation is also a service provided by the site's users. The administrator of this site (ettv.be) cannot be held responsible for what its users post, or any other actions of its users. You may not use this site to distribute or download any material when you do not have the legal rights to do so. It is your own responsibility to adhere to these terms.