the mandalorian Deputy joker Parasite Stumptown s01e11 etmovies servant 0 vikings legacies jumanji the next level 2019 etrg yts modern family supernatural STAR WARS Servant S01E10 frozen 2 rq.mp4 ettv young sheldon S03E12 legacies s02e09 Mom S07E12 Gemini Man 2019 The Good Place deputy s01e03 Modern Family S11E11 Star Wars The Rise of Skywalker 2019 supernatural s15e09 frozen ii 2019 Dark Waters 1917 2019 ddr chicago fire s08e11 68 whiskey s01e01 arrow Joker 2019 ethd Ford v Ferrari 2019 Sex Education S02 harley quinn s01e08 terminator dark fate legends of tomorrow Knives Out 2019 The Good Place S04E11 Hindi Maleficent Mistress of Evil 2019 chicago med s05e11 Criminal Minds S15E03 dolittle 2020 sex education season 2 Motherless Brooklyn 2019 evil s01e12 bad boys for life 2020 evil terminator Xxx Underwater 2020 vikings s06e07 The Magicians s05e01 evo The Flash sex education dvdscr Midway 2019 arrow s08e08 ita harley quinn Bala young sheldon Terminator Dark Fate 2019 
Warning! Use a V.P.N when Downloading Torrents!
Your IP Address is 3.227.2.246. Location is United States
Your Internet Provider is tracking your torrent activity! Hide your IP ADDRESS with a V.P.N!
We strongly recommend using ExpressVP-N to anonymize your torrenting. 30 Day Money Back Guarantee!
Try it Now!
ETTV Recommended TV Shows
Evil.S01E12.HDTV.x264-KILLERS[ettv] torrent
Law.and.Order.SVU.S21E11.HDTV.x264-SVA[ettv] torrent
Supernatural.S15E09.HDTV.x264-CRAVERS[ettv] torrent
Deputy.S01E03.WEB.x264-XLF[ettv] torrent

ETTV Recommended SD
Richard.Jewell.2019.DVDScr.XVID.AC3.HQ.Hive-CM8[EtHD] torrent
Dark.Waters.2019.SCR.XviD.AC3-EVO[EtHD] torrent
Queen.And.Slim.2019.QuerySCR x264-TOPKEK torrent
Color Out of Space.2019.HDRip.XviD.AC3-EVO torrent

ETTV Recommended HD
A.Fall.from.Grace.2020.1080p.NF.WEB-Rip.DDP5.1.HEVC-DDR[EtHD] torrent
Ant-Man.and.the.Wasp.2018.BRRip.1080p.HEVC.HDR.Multi.DD5.1.ETRG torrent
Dark.Waters.2019.720p.SCREENER.x264.AAC-ETRG torrent
Terminator Dark Fate 2019.MULTi.BluRay.1080p.TrueHD.Atmos.7.1.(En.Fr).HEVC-DDR[EtHD] torrent

ETTV Recommended UHD
You.Were.Never.Really.Here.2017.2160p.AMZN.WEBRip.DDP5.1.HEVC-DDR[EtHD] torrent
Battle.Los.Angeles.2011.2160p.AMZN.WEBRip.DDP5.1.HEVC-DDR[EtHD] torrent
The Sword in the Stone 1963 2160p HDR DisneyP WEBRip DTS-HD MA 5.1 HEVC-DDR[EtHD] torrent
Terminator Dark Fate 2019.MULTi.UHD.BluRay.2160p.HDR.TrueHD.Atmos.7.1.HEVC-DDR torrent

ETTV Recommended Cam
Dolittle 2020 HDCAM x264 AC3-ETRG torrent
Seberg 2019 HDCAM x264 AC3-ETRG torrent
The Grudge 2020 720p HDTC-GETB8 torrent
Bad Boys for Life 2020 HDCAM x264 AC3-ETRG torrent

ETTV Recommended Foreign
Pagalpanti.2019.1080p.AMZN.WEB-Rip.DDP.5.1.HEVC-DDR[EtHD] torrent
Jai Mummy Di (2020) Hindi 720p PreDVD x264 AAC 1.2GB CineVood Exclusive torrent
Bala 2019 Hindi 720p 10bit HS WEBRip x265 HEVC AAC ESub - MoviePirate - Telly.mkv torrent
The.Battle.of.Jangsari.2019.1080p.BluRay.x264-YOL0W[EtHD] torrent


Download Torrent "Prospect (2018).720p.H264.ita.eng.Ac3-5.1-MIRCrew"

IMDB Details
Description:

A teenage girl and her father travel to a remote alien moon, aiming to strike it rich. They've secured a contract to harvest a large deposit of the elusive gems hidden in the depths of the moon's toxic forest. But there are others roving the wilderness and the job quickly devolves into a fight to survive. Forced to contend not only with the forest's other ruthless inhabitants, but with her own ...

Genre:

Drama, Sci-Fi, Thriller

Download Torrent (Magnet)
Download Torrent (File)
Seeds: 341
Leechers: 137
Completed: 5,877 
Last Checked: 15-07-2019 20:17:54


Loading...
Details
Title:Prospect (2018).720p.H264.ita.eng.Ac3-5.1-MIRCrew
Description:
Prospect (2018).720p.H264.ita.eng.Ac3-5.1-MIRCrew


NO FOUND ONLY ORIGINAL RELEASE

My release is always in double track audio italian and Original audio
for select it use VLC or dvd player home
not use wmp

Prospect (2018)

Quality MIRCrew on HD 720p da  2,0 gb









Regista: Christopher Caldwell, Zeek Earl
Genere: Fantascienza, Thriller, Drammatico
Anno: 2018
Paese: Canada, USA
Durata: 100 min



Sophie Thatcher, Jay Duplass, Pedro Pascal, Luke Pitzrick, Arthur Deranleau, Andre Royo, Alex McCauley, Doug Dawson, Sheila Vand



Prospect, film diretto da Christopher Caldwell e Zeek Earl, racconta la storia di un padre e di una figlia adolescente in viaggio verso un pianeta lontano, speranzosi di arricchirsi grazie a un prezioso minerale, nascosto all'interno di una tossica foresta. Ma non sono gli unici "cercatori d'oro" del pianeta, infatti altri sono sulle tracce delle gemme e scateneranno una spietata concorrenza tra di loro



A teenage girl and her father travel to a remote alien moon, aiming to strike it rich. They've secured a contract to harvest a large deposit of the elusive gems hidden in the depths of the moon's toxic forest. But there are others roving the wilderness and the job quickly devolves into a fight to survive.

   





General

Complete name                            : Prospect (2018).720p.h264.ita.eng-MIRCrew\Prospect (2018).720p.h264.ita.eng-MIRCrew.mkv
Format                                   : Matroska
Format version                           : Version 2
File size                                : 1.92 GiB
Duration                                 : 1h 40mn
Overall bit rate                         : 2 752 Kbps
Movie name                               : MIRCrew
Encoded date                             : UTC 2019-07-10 13:59:27
Writing application                      : mkvmerge v5.8.0 ('No Sleep / Pillow') built on Sep  2 2012 15:37:04
Writing library                          : Lavf54.63.100
COMMENT                                  : mircrew-releases

Video
ID                                       : 1
Format                                   : AVC
Format/Info                              : Advanced Video Codec
Format profile                           : [email protected]
Format settings, CABAC                   : Yes
Format settings, ReFrames                : 2 frames
Codec ID                                 : V_MPEG4/ISO/AVC
Duration                                 : 1h 40mn
Bit rate                                 : 2 000 Kbps
Width                                    : 1 280 pixels
Height                                   : 672 pixels
Display aspect ratio                     : 1.897
Frame rate mode                          : Variable
Frame rate                               : 23.976 fps
Color space                              : YUV
Chroma subsampling                       : 4:2:0
Bit depth                                : 8 bits
Scan type                                : Progressive
Bits/(Pixel*Frame)                       : 0.097
Stream size                              : 1.35 GiB (70%)
Title                                    : MIRCrew
Writing library                          : x264 core 130 r2273
Encoding settings                        : cabac=1 / ref=2 / deblock=1:0:0 / analyse=0x1:0x131 / me=hex / subme=7 / psy=1 / psy_rd=1.00:0.00 / mixed_ref=0 / me_range=16 / chroma_me=1 / trellis=1 / 8x8dct=0 / cqm=0 / deadzone=21,11 / fast_pskip=1 / chroma_qp_offset=-2 / threads=9 / lookahead_threads=1 / sliced_threads=0 / nr=0 / decimate=1 / interlaced=0 / bluray_compat=0 / constrained_intra=0 / bframes=3 / b_pyramid=0 / b_adapt=1 / b_bias=0 / direct=3 / weightb=1 / open_gop=0 / weightp=2 / keyint=230 / keyint_min=23 / scenecut=40 / intra_refresh=0 / rc_lookahead=40 / rc=abr / mbtree=1 / bitrate=2000 / ratetol=1.0 / qcomp=0.60 / qpmin=10 / qpmax=69 / qpstep=4 / vbv_maxrate=24000 / vbv_bufsize=24000 / nal_hrd=none / ip_ratio=1.40 / aq=1:1.00
Language                                 : Italian
Default                                  : Yes
Forced                                   : No
DURATION                                 : 01:40:06.167000000
NUMBER_OF_FRAMES                         : 144004
NUMBER_OF_BYTES                          : 7025648438
_STATISTICS_WRITING_APP                  : mkvmerge v34.0.0 ('Sight and Seen') 64-bit
_STATISTICS_WRITING_DATE_UTC             : 2019-07-01 14:21:04
_STATISTICS_TAGS                         : BPS DURATION NUMBER_OF_FRAMES NUMBER_OF_BYTES

Audio #1
ID                                       : 2
Format                                   : AC-3
Format/Info                              : Audio Coding 3
Mode extension                           : CM (complete main)
Codec ID                                 : A_AC3
Duration                                 : 1h 40mn
Bit rate mode                            : Constant
Bit rate                                 : 384 Kbps
Channel(s)                               : 6 channels
Channel positions                        : Front: L C R, Side: L R, LFE
Sampling rate                            : 48.0 KHz
Bit depth                                : 16 bits
Compression mode                         : Lossy
Delay relative to video                  : -5ms
Stream size                              : 275 MiB (14%)
Title                                    : Ita Ac3 5.1
Language                                 : Italian
Default                                  : Yes
Forced                                   : No
DURATION                                 : 01:40:06.240000000
NUMBER_OF_FRAMES                         : 187695
NUMBER_OF_BYTES                          : 288299520
_STATISTICS_WRITING_APP                  : mkvmerge v34.0.0 ('Sight and Seen') 64-bit
_STATISTICS_WRITING_DATE_UTC             : 2019-07-01 14:21:04
_STATISTICS_TAGS                         : BPS DURATION NUMBER_OF_FRAMES NUMBER_OF_BYTES

Audio #2
ID                                       : 3
Format                                   : AC-3
Format/Info                              : Audio Coding 3
Mode extension                           : CM (complete main)
Codec ID                                 : A_AC3
Duration                                 : 1h 40mn
Bit rate mode                            : Constant
Bit rate                                 : 384 Kbps
Channel(s)                               : 6 channels
Channel positions                        : Front: L C R, Side: L R, LFE
Sampling rate                            : 48.0 KHz
Bit depth                                : 16 bits
Compression mode                         : Lossy
Delay relative to video                  : -5ms
Stream size                              : 275 MiB (14%)
Title                                    : Eng Ac3 5.1
Language                                 : English
Default                                  : No
Forced                                   : No
DURATION                                 : 01:40:06.240000000
NUMBER_OF_FRAMES                         : 187695
NUMBER_OF_BYTES                          : 480499200
_STATISTICS_WRITING_APP                  : mkvmerge v34.0.0 ('Sight and Seen') 64-bit
_STATISTICS_WRITING_DATE_UTC             : 2019-07-01 14:21:04
_STATISTICS_TAGS                         : BPS DURATION NUMBER_OF_FRAMES NUMBER_OF_BYTES

Menu
00:00:00.000                             : :Capitolo 01
00:13:24.554                             : :Capitolo 02
00:35:31.588                             : :Capitolo 03
00:54:59.254                             : :Capitolo 04
01:12:51.075                             : :Capitolo 05
01:27:25.907                             : :Capitolo 06




Category:Movies > HD 720p
Lang:English  English
Total Size:1.92 GB
Info Hash:141bec720b9d25ddd2e919f37bada1fe3ff80671
Added By:robbyrs
Date Added:15-07-2019 20:17:49

Files

File List: 
 File Size
info.txt25.00 B
MIRCrew.png182.26 kB
Prospect (2018).720p.h264.ita.eng-MIRCrew.mkv1.92 GB



Loading...
Comments

There are currently no comments. Be the first one to write something !

Disclaimer: None of the files shown here are actually hosted or transmitted by this server. The links are provided solely by this site's users. The site moderation is also a service provided by the site's users. The administrator of this site (ettv.be) cannot be held responsible for what its users post, or any other actions of its users. You may not use this site to distribute or download any material when you do not have the legal rights to do so. It is your own responsibility to adhere to these terms.