annabelle comes home 2019 PREACHER S04E04 fear the walking dead once upon a time in hollywood 2019 dark phoenix 2019 Last Week Tonight rocketman 2019 yts ethd 幼女 ettv avengers endgame the secret life of pets 2 2019 night hunter 2019 shazam 2019 the boys crawl 2019 spider man far from home 2019 alita battle angel 2019 0 toy story 4 2019 the lion king 2019 suits uhd hindi Mission Mangal etrg evo Instinct  john wick chapter 3 – parabellum 2019 long shot 2019 dora and the lost city of gold 2019 godzilla king of the monsters 2019 ddr midsommar 2019 the hustle 2019 aladdin 2019 avengers endgame 2019 good boys 2019 wwe yesterday 2019 men in black international 2019 bachelor in paradise s06e05 mindhunter Bachelor in Paradise fear the walking dead s05e10 fast furious presents hobbs shaw 2019 the kitchen 2019 love hip hop hollywood s06e03 john wick anna 2019 2.0 (2018) brightburn 2019 Xxx pennyworth s01e05 hellboy 2019 men in black the angry birds movie 2 2019 captain marvel 2019 etmovies pennyworth john wick 3 ma 2019 godzilla young justice sextuplets 2019 47 meters down uncaged 2019 scary stories to tell in the dark 2019 Men in Black International Batla House 
Warning! Use a VPN When Downloading Torrents!
Your IP Address is 35.173.48.224. Location is United States
Your Internet Provider is tracking your torrent activity! Hide your IP ADDRESS with a VPN!
We strongly recommend using TrustZone to anonymize your torrenting. 30 Day Money Back Guarantee!
Try it Now!
ETTV Recommended TV Shows
Pandora.2019.S01E06.HDTV.x264-SVA[ettv] torrent
Animal.Kingdom.US.S04E13.WEBRip.x264-TBS[ettv] torrent
The.Detour.S04E10.WEBRip.x264-TBS[ettv] torrent
Bachelor.In.Paradise.S06E06.WEB.h264-TBS[ettv] torrent

ETTV Recommended SD
One.Last.Night.2019.HDRip.XviD.AC3-EVO[EtMovies] torrent
Camp.Wedding.2019.HDRip.XviD.AC3-EVO[EtMovies] torrent
Men in Black International.2019.HDRip.XViD-ETRG torrent
Hoax.2019.HDRip.XViD-ETRG torrent

ETTV Recommended HD
Canal.Street.2019.1080p.WEB-DL.H264.AC3-EVO[EtHD] torrent
The.Tomorrow.Man.2019.1080p.WEB-DL.H264.AC3-EVO[EtHD] torrent
Men in Black International 2019.MULTi.1080p.AMZN.WEB-Rip.DDP5.1.HEVC-DDR[EtHD] torrent
The Secret Life of Pets 2 2019.BluRay.1080p.TrueHD.Atmos.7.1.HEVC-DDR[EtHD] torrent

ETTV Recommended UHD
Suicide Squad 2016.MULTi.UHD.2160p.Blu-ray.HDR.ATMOS.7.1.HEVC-DDR torrent
Brawl in Cell Block 99 2017.UHD.BluRay.2160p.SDR.DTS-HDMA.5.1.HEVC-DDR torrent
Mayhem 2017.2160p.UHD.BluRay.SDR.DTS-HDMA.5.1.HEVC-DDR torrent
Men in Black International 2019.2160p.WEB-Rip.HDR.DDP.5.1.HEVC-DDR[EtHD] torrent

ETTV Recommended Cam
Horrible Histories The Movie 2019 720p HDCAM-ORCA88 torrent
47 Meters Down Uncaged 2019 720p HDCAMRip-GETB8[MOVCR] torrent
Good Boys 2019 HDCAM x264 AC3-ETRG torrent
Crawl 2019 NEW HDCAM x264 AC3-ETRG torrent

ETTV Recommended Foreign
Family 420 Once Again (2019) Punjabi 1-3 WebRip x264 DDP 5.1 Esub-DusIcTv torrent
Game Over (2019) 720p Hindi Proper HDRip x264 DD5.1 (224kbps) 1.3GB ESub - MovCr torrent
Sin.Island.2018.HDRip.720p-Mkvking torrent
Balkanskiy rubezh a.k.a. The Balkan Line 2019 720p BluRay x264-Mkvking torrent


Download Torrent "Annabelle.Comes.Home.2019.KORSUB.HDRip.x264-STUTTERSHIT"

IMDB Details
Description:

While babysitting the daughter of Ed and Lorraine Warren, a teenager and her friend unknowingly awaken an evil spirit trapped in a doll.

Genre:

Horror, Mystery, Thriller

Download Torrent (Magnet)
Download Torrent (File)
Seeds: 1,424
Leechers: 449
Completed: 28,364 
Last Checked: 14-08-2019 06:22:05


Loading...
Details
Title:Annabelle.Comes.Home.2019.KORSUB.HDRip.x264-STUTTERSHIT
Description:






Video
ID : 1
Format : AVC
Format/Info : Advanced Video Codec
Format profile : [email protected]
Format settings : CABAC / 5 Ref Frames
Format settings, CABAC : Yes
Format settings, Reference frames : 5 frames
Codec ID : avc1
Codec ID/Info : Advanced Video Coding
Duration : 1 h 39 min
Bit rate : 1 100 kb/s
Width : 720 pixels
Height : 300 pixels
Display aspect ratio : 2.40:1
Frame rate mode : Constant
Frame rate : 30.000 FPS
Color space : YUV
Chroma subsampling : 4:2:0
Bit depth : 8 bits
Scan type : Progressive
Bits/(Pixel*Frame) : 0.170
Stream size : 785 MiB (81%)
Title : Annabelle.Comes.Home.2019.KORSUB.HDRip.x264-STUTTERSHIT
Writing library : x264 core 148 r2795M aaa9aa8
Encoding settings : cabac=1 / ref=5 / deblock=1:-1:-1 / analyse=0x3:0x113 / me=umh / subme=9 / psy=1 / psy_rd=1.00:0.15 / mixed_ref=1 / me_range=16 / chroma_me=1 / trellis=2 / 8x8dct=1 / cqm=0 / deadzone=21,11 / fast_pskip=1 / chroma_qp_offset=-3 / threads=24 / lookahead_threads=2 / sliced_threads=0 / nr=0 / decimate=1 / interlaced=0 / bluray_compat=0 / constrained_intra=0 / bframes=3 / b_pyramid=2 / b_adapt=2 / b_bias=0 / direct=3 / weightb=1 / open_gop=0 / weightp=2 / keyint=250 / keyint_min=25 / scenecut=40 / intra_refresh=0 / rc_lookahead=50 / rc=abr / mbtree=1 / bitrate=1100 / ratetol=1.0 / qcomp=0.60 / qpmin=0 / qpmax=69 / qpstep=4 / ip_ratio=1.40 / aq=1:1.00
Codec configuration box : avcC

Audio
ID : 2
Format : AAC LC
Format/Info : Advanced Audio Codec Low Complexity
Codec ID : mp4a-40-2
Duration : 1 h 39 min
Bit rate mode : Constant
Bit rate : 256 kb/s
Channel(s) : 2 channels
Channel layout : L R
Sampling rate : 48.0 kHz
Frame rate : 46.875 FPS (1024 SPF)
Compression mode : Lossy
Stream size : 183 MiB (19%)
Title : Annabelle.Comes.Home.2019.KORSUB.HDRip.x264-STUTTERSHIT
Language : English
Default : Yes
Alternate group : 1







Category:Movies > X264/H264
Lang:English  English
Total Size:974 MB
Info Hash:aff26cc1c4a5adb63d4e14b431c8123772e42ab3
Added By:Dakshvv
Date Added:14-08-2019 06:21:58

Files

File List: 
 File Size
Annabelle.Comes.Home.2019.KORSUB.HDRip.x264-STUTTERSHIT.mp4974 MB
English-SDH.srt80.57 kB
English.srt62.51 kB
RARBG.txt31.00 B



Loading...
Comments

There are currently no comments. Be the first one to write something !

Disclaimer: None of the files shown here are actually hosted or transmitted by this server. The links are provided solely by this site's users. The site moderation is also a service provided by the site's users. The administrator of this site (ettv.be) cannot be held responsible for what its users post, or any other actions of its users. You may not use this site to distribute or download any material when you do not have the legal rights to do so. It is your own responsibility to adhere to these terms.