Batwoman silicon valley ford v ferrari 2019 The Flash s00e05 evo supergirl Arrow rambo last blood 2019 6 underground ad astra 2019 mandalorian s01e06 for all mankind mandalorian WWE harley quinn His Dark Materials yts joker ethd frozen ii 2019 See the grand tour 0 south park once upon a time in hollywood 2019 THE EXPANSE S04 rq.mp4 Supernatural Star Trek Discovery s00e09 The Mandalorian s01e05 legacies the blacklist s07e10 etmovies watchmen terminator dark fate 2019 the mandalorian The Grand Tour s04e01 etrg code 8 gemini man 2019 supernatural s15e08 ad astra the irishman 2019 hustlers 2019 ddr ettv Young Sheldon angel has fallen 2019 the expanse s04e01 the blacklist jumanji the next level 2019 The Morning Show vikings xxx Star Trek Discovery s00e10 knives out 2019 21 bridges 2019 blacklist runaways hindi zombieland double tap 2019 the flash joker 2019 the expanse Young Sheldon s03e10 expanse Gold Rush rick and morty queen slim 2019 6 underground 2019 the mandalorian s01e06 
Warning! Use a V.P.N when Downloading Torrents!
Your IP Address is 34.237.51.159. Location is United States
Your Internet Provider is tracking your torrent activity! Hide your IP ADDRESS with a V.P.N!
We strongly recommend using ExpressVP-N to anonymize your torrenting. 30 Day Money Back Guarantee!
Try it Now!
ETTV Recommended TV Shows
Hawaii.Five-0.2010.S10E11.HDTV.x264-SVA[ettv] torrent
Magnum.P.I.2018.S02E11.HDTV.x264-SVA[ettv] torrent
Shameless.US.S10E06.WEB.h264-TBS[ettv] torrent
Ray.Donovan.S07E05.WEB.h264-TBS[ettv] torrent

ETTV Recommended SD
After.She.Wakes.2019.HDRip.XviD.AC3-EVO torrent
6.Underground.2019.HDRip.XviD.AC3-EVO[EtMovies] torrent
Brexit.2019.BDRip.XviD.AC3-EVO[EtMovies] torrent
Use.Me.2019.HDRip.XviD.AC3-EVO[EtMovies] torrent

ETTV Recommended HD
The.Parts.You.Lose.2019.1080p.BluRay.DTS-HDMA.5.1.HEVC-DDR[EtHD] torrent
Running.with.the.Devil.2019.1080p.BluRay.DTS-HDMA.5.1.HEVC-DDR[EtHD] torrent
Spider in the Web 2019.1080p.Blu-ray.DTS-HDMA.5.1.HEVC-DDR[EtHD] torrent
A.Rainy.Day.in.New.York.2019.1080p.DTS-HDMA.5.1.HEVC-DDR[EtHD] torrent

ETTV Recommended UHD
The Report 2019.UHD.2160p.HDR.WEBRip.DDP.5.1.HEVC-DDR torrent
War 2019.MULTi.UHD.4K.SDR.TrueHD.7.1.HEVC-DDR torrent
It.Chapter.Two.2019.4K.HDR.2160p.BDRip Ita Eng x265-NAHOM torrent
Spider.Man.Homecoming.2017.BDRip.2160p.UHD.HDR.Multilang.TrueHD.DTS.DD5.1.Gerald torrent

ETTV Recommended Cam
Dark Waters 2019 HDCAM x264-ETRG torrent
Jay and Silent Bob Reboot 2019 HDCAM x264-ETRG torrent
Jumanji.The.Next.Level.2019.NEW.HDCAM.x264.AC3-ETRG torrent
Black Christmas 2019 720p HDCAM-GETB8 torrent

ETTV Recommended Foreign
Free Fire (2016) x264 720p UNCUT BluRay Eng Subs {Dual Audio} [Hindi ORG DD 2.0 + English 2.0] Exclusive By DREDD torrent
Kitty Party (2019) Punjabi 720p PreDVD Rip x264 AAC 1.2GB NO LOGO CineVood Exclusive torrent
Geetha Govindam (2018) x264 720p UNCUT WEBRiP Eng Susb {Dual Audio} [Hindi ORG DD 2.0 + Telugu 2.0] Exclusive By DREDD torrent
Late Night (2019) 720p Web-DL x264 [Dual-Audio][Hindi 5.1 - English 5.1] ESubs - Downloadhub torrent


Download Torrent "Annabelle.Comes.Home.2019.KORSUB.HDRip.XviD.MP3-STUTTERSHIT"

IMDB Details
Description:

While babysitting the daughter of Ed and Lorraine Warren, a teenager and her friend unknowingly awaken an evil spirit trapped in a doll.

Genre:

Horror, Mystery, Thriller

Download Torrent (Magnet)
Download Torrent (File)
Seeds: 508
Leechers: 378
Completed: 16,762 
Last Checked: 14-08-2019 06:23:08


Loading...
Details
Title:Annabelle.Comes.Home.2019.KORSUB.HDRip.XviD.MP3-STUTTERSHIT
Description:







Video
ID : 0
Format : MPEG-4 Visual
Format profile : [email protected]
Format settings, BVOP : No
Format settings, QPel : No
Format settings, GMC : No warppoints
Format settings, Matrix : Default (H.263)
Codec ID : XVID
Codec ID/Hint : XviD
Duration : 1 h 39 min
Bit rate : 1 530 kb/s
Width : 720 pixels
Height : 300 pixels
Display aspect ratio : 2.40:1
Frame rate : 30.000 FPS
Color space : YUV
Chroma subsampling : 4:2:0
Bit depth : 8 bits
Scan type : Progressive
Compression mode : Lossy
Bits/(Pixel*Frame) : 0.236
Stream size : 1.07 GiB (88%)
Writing library : Lavc58.1.100

Audio
ID : 1
Format : MPEG Audio
Format version : Version 1
Format profile : Layer 3
Format settings : Joint stereo
Codec ID : 55
Codec ID/Hint : MP3
Duration : 1 h 39 min
Bit rate mode : Constant
Bit rate : 192 kb/s
Channel(s) : 2 channels
Sampling rate : 48.0 kHz
Compression mode : Lossy
Stream size : 137 MiB (11%)
Alignment : Aligned on interleaves
Interleave, duration : 24 ms (0.72 video frame)
Interleave, preload duration : 504 ms








Category:Movies > XviD
Lang:Unknown/NA
Total Size:1.21 GB
Info Hash:1fc566c06d39e3927e140a1f84c4f0eb9ed67954
Added By:Dakshvv
Date Added:14-08-2019 06:23:01

Files

File List: 
 File Size
Annabelle.Comes.Home.2019.KORSUB.HDRip.XviD.MP3-STUTTERSHIT.avi1.21 GB
English-SDH.srt80.57 kB
English.srt62.51 kB
RARBG.txt31.00 B



Loading...
Comments

There are currently no comments. Be the first one to write something !

Disclaimer: None of the files shown here are actually hosted or transmitted by this server. The links are provided solely by this site's users. The site moderation is also a service provided by the site's users. The administrator of this site (ettv.be) cannot be held responsible for what its users post, or any other actions of its users. You may not use this site to distribute or download any material when you do not have the legal rights to do so. It is your own responsibility to adhere to these terms.