Charlies Angels 2019 Star Wars The Rise of Skywalker 2019 strike back ettv young sheldon S03E16 macgyver  parasite Parasite 2019 ethd Lincoln Rhyme Hunt for the Bone Collector S01E06 walking dead  jumanji the next level 2019 brooklyn nine nine 1917 2019 Greys Anatomy MacGyver S04E03 GOOD NEWWZ etrg yts hindi gold rush Jojo Rabbit 2019 Terminator Dark Fate 2019 Gold Rush S10E19 The Gentlemen 2019 dolittle 2020 Clone Wars  Star Trek Picard S01E05 Fantasy Island 2020 star trek picard Hunters S01E01 criminal minds etmovies 21 bridges 2019 knives out 2019 rq.mp4 Tommy S01E03 young sheldon NCIS 0 Hawaii Five-0 S10E17 bad boys for life 2020 ITA Underwater 2020 evo Deputy s01e08 the walking dead sonic the hedgehog 2020 xxx the call of the wild 2020 jumanji hunters Picard Birds of Prey (and the Fantabulous Emancipation of One Harley Quinn) 2020 harley quinn Legends of Tomorrow the flash  The Sinner s03e03 ddr greys anatomy S16E14 frozen ii 2019 ford v ferrari 2019 wwe Star Trek Picard S01E04 charmed vikings knives out star wars the outsider picard s01e05 Joker 2019 midway 2019 
Warning! Use a V.P.N when Downloading Torrents!
Your IP Address is 3.94.202.172. Location is United States
Your Internet Provider is tracking your torrent activity! Hide your IP ADDRESS with a V.P.N!
We strongly recommend using ExpressVP-N to anonymize your torrenting. 30 Day Money Back Guarantee!
Try it Now!
ETTV Recommended TV Shows
Gold.Rush.S10E19.WEBRip.x264-TBS[ettv] torrent
Charmed.2018.S02E13.HDTV.x264-SVA[ettv] torrent
WWE Friday Night SmackDown 2020 02 21 HDTV x264-NWCHD [TJET] torrent
Strike.Back.S08E02.WEB.H264-XLF[ettv] torrent

ETTV Recommended SD
Villains.2019.BRRip.XviD.AC3-EVO torrent
Queen of Spades.Through the Looking Glass.2019.BDRip.XviD.AC3-EVO torrent
Goldie.2019.HDRip.XViD.AC3-ETRG torrent
I.Am.Fear.2020.BDRip.XviD.AC3-EVO torrent

ETTV Recommended HD
Animal.Among.Us.2019.1080p.BluRay.x264-UNVEiL[EtHD] torrent
Dolls.2019.1080p.BluRay.x264-JustWatch[EtHD] torrent
Hit.and.Run.2012.1080p.BluRay.x264-SPARKS[EtHD] torrent
Standing.Up.Falling.Down.2019.1080p.AMZN.WEB-DL.DDP5.1.H.264-NTG[EtHD] torrent

ETTV Recommended UHD
Timmy.Failure.Mistakes.Were.Made.2020.HDR.2160p.WEB.H265-PETRiFiED torrent
Charlies.Angels.2019.2160p.AMZN.WEBRip.DDP5.1.x265-AJP69 torrent
A.Bugs.Life.1998.iNTERNAL.HDR.2160p.WEB.H265-WATCHER torrent
Up.2009.iNTERNAL.HDR.2160p.WEB.H265-WATCHER torrent

ETTV Recommended Cam
The Photograph 2020 720p HDCAM-C1NEM4 torrent
Emma 2020 720p HDCAM-C1NEM4 torrent
Sonic the Hedgehog.2020.READNFO.HDCAM.x264-ETRG torrent
Brahms The Boy 2 2020 HDCAM x264 -ETRG torrent

ETTV Recommended Foreign
Good.Newwz.2019.720p.AMZN.WEB-DL.DD+5.1.x265-Telly torrent
The Last Thing He Wanted (2020) 720p Web-DL x264 [Dual-Audio][Hindi 5.1 - English 5.1] ESubs - Downloadhub torrent
Bhoot (2020) Hindi 720p PreDVD x264 AAC 1.2GB CineVood Exclusive torrent
Parasite.2019.2160p.UHD.BluRay.X265-IAMABLE torrent


Download Torrent "Godzilla King of the Monsters 2019 1080p BluRay x264 DTS [MW]"

IMDB Details
Description:

The crypto-zoological agency Monarch faces off against a battery of god-sized monsters, including the mighty Godzilla, who collides with Mothra, Rodan, and his ultimate nemesis, the three-headed King Ghidorah.

Genre:

Action, Adventure, Fantasy, Sci-Fi

Download Torrent (Magnet)
Download Torrent (File)
Seeds: 476
Leechers: 459
Completed: 2,082 
Last Checked: 20-08-2019 09:29:35


Loading...
Details
Title:Godzilla King of the Monsters 2019 1080p BluRay x264 DTS [MW]
Description:




General
Format                                   : Matroska
Format version                           : Version 4
File size                                : 3.64 GiB
Duration                                 : 2 h 11 min
Overall bit rate                         : 3 957 kb/s

Video
ID                                       : 1
Format                                   : AVC
Format/Info                              : Advanced Video Codec
Format profile                           : [email protected]
Format settings                          : CABAC / 4 Ref Frames
Format settings, CABAC                   : Yes
Format settings, Reference frames        : 4 frames
Codec ID                                 : V_MPEG4/ISO/AVC
Duration                                 : 2 h 11 min
Bit rate                                 : 3 200 kb/s
Width                                    : 1 920 pixels
Height                                   : 800 pixels
Display aspect ratio                     : 2.40:1
Frame rate mode                          : Constant
Frame rate                               : 23.976 (24000/1001) FPS
Color space                              : YUV
Chroma subsampling                       : 4:2:0
Bit depth                                : 8 bits
Scan type                                : Progressive
Bits/(Pixel*Frame)                       : 0.087
Stream size                              : 2.92 GiB (80%)
Writing library                          : x264 core 157 r2935 545de2f

Audio
ID                                       : 2
Format                                   : DTS
Format/Info                              : Digital Theater Systems
Codec ID                                 : A_DTS
Duration                                 : 2 h 11 min
Bit rate mode                            : Constant
Bit rate                                 : 768 kb/s
Channel(s)                               : 6 channels
Channel layout                           : C L R Ls Rs LFE
Sampling rate                            : 48.0 kHz
Frame rate                               : 93.750 FPS (512 SPF)
Bit depth                                : 16 bits
Compression mode                         : Lossy
Stream size                              : 724 MiB (19%)
Language                                 : English
Default                                  : Yes
Forced                                   : No

Text #1
ID                                       : 3
Format                                   : VobSub
Muxing mode                              : zlib
Codec ID                                 : S_VOBSUB
Codec ID/Info                            : Picture based subtitle format used on DVDs
Duration                                 : 2 h 11 min
Bit rate                                 : 8 334 b/s
Count of elements                        : 1661
Stream size                              : 7.83 MiB (0%)
Language                                 : English
Default                                  : Yes
Forced                                   : No


Click To View Image

https://pichub.site/image/hR7KD
https://pichub.site/image/hRVPZ
https://pichub.site/image/hRwiI
https://pichub.site/image/hRkJg
https://pichub.site/image/hRCb8
https://pichub.site/image/hRyoX

Category:Movies > HD 1080p
Lang:English  English
Total Size:3.64 GB
Info Hash:bc4f5db926eed0aef627c2edcdc1fcbe76ab6899
Added By:MovieFreak
Date Added:20-08-2019 09:29:32

Files

File List: 
 File Size
Godzilla King of the Monsters 2019 1080p BluRay x264 DTS [MW].mkv3.64 GB



Loading...
Comments

There are currently no comments. Be the first one to write something !

Disclaimer: None of the files shown here are actually hosted or transmitted by this server. The links are provided solely by this site's users. The site moderation is also a service provided by the site's users. The administrator of this site (ettv.be) cannot be held responsible for what its users post, or any other actions of its users. You may not use this site to distribute or download any material when you do not have the legal rights to do so. It is your own responsibility to adhere to these terms.