it chapter two 2019 anal succession s02e06 the secret life of pets 2 2019 ddr etmovies Fear The Walking Dead fear the walking dead s05e14 titans godzilla king of the monsters 2019 preacher 0 Titans s02e02 spider man far from home night hunter 2019 萝莉 dark phoenix 2019 pennyworth yesterday 2019 proper fast furious presents hobbs shaw 2019 Peaky Blinders s05e05 47 meters down uncaged 2019 john wick chapter 3 – parabellum 2019 etrg pennyworth s01e08 avengers endgame 2019 幼女 anna 2019 childs play 2019 toy story 4 Power hindi crawl 2019 preacher s04e08 power s06e04 good boys 2019 peaky blinders once upon a time in hollywood 2019 spider man far from home 2019 Last Week Tonight Kabir singh joker 2019 ethd last week tonight with john oliver s06e23 ma 2019 ad astra 2019 yts yesterday toy story 4 2019 evo power s06e03 hustlers 2019 it 2017 ready or not 2019 ballers aladdin 2019 angel has fallen 2019 2.0 (2018) succession ballers s05e04 ettv dream girl  scary stories to tell in the dark 2019 the lion king 2019 men in black international 2019 toy story xxx survivor wwe Anna  
Warning! Use a VPN When Downloading Torrents!
Your IP Address is 34.204.176.189. Location is United States
Your Internet Provider is tracking your torrent activity! Hide your IP ADDRESS with a VPN!
We strongly recommend using TrustZone to anonymize your torrenting. 30 Day Money Back Guarantee!
Try it Now!
ETTV Recommended TV Shows
Ballers.S05E04.WEB.H264-iNSiDiOUS[ettv] torrent
A.Confession.S01E03.HDTV.x264-MTB[ettv] torrent
Murdoch.Mysteries.S13E01.WEBRip.x264-TBS[ettv] torrent
The.Deuce.S03E02.WEB.H264-STARZ[ettv] torrent

ETTV Recommended SD
The Final Scream.2019.HDRip.XviD-EVO torrent
A.Score.to.Settle.2019.BRRip.XViD-ETRG torrent
Better.Than.Love.2019.HDRip.XviD.AC3-EVO[EtMovies] torrent
Mayday.2019.HDRip.XviD.AC3-EVO[EtMovies] torrent

ETTV Recommended HD
Boudica.Rise.Of.The.Warrior.Queen.2019.1080p.WEB-DL.H264.AC3-EVO[EtHD] torrent
Perfect.2019.1080p.AMZN.WEB-DL.DDP5.1.H.264-NTG[EtHD] torrent
A.Score.to.Settle.2019.1080p.BluRay.x264-ROVERS[EtHD] torrent
Annabelle Comes Home.2019.1080p.WEB-DL.H264.AC3-EVO[EtHD] torrent

ETTV Recommended UHD
Power Rangers 2017.MULTi.UHD.Blu-ray.2160p.HDR.Atmos.7.1.HEVC-DDR torrent
Smurfs - The Lost Village 2017.MULTi.UHD.Blu-ray.2160p.HDR.Atmos.7.1.HEVC-DDR torrent
Resident Evil Vendetta 2017.MULTi.UHD.Blu-ray.2160p.HDR.Atmos.7.1.HEVC-DDR torrent
Rough Night.2017.MULTi.UHD.Blu-ray.2160p.HDR.Atmos.7.1.HEVC-DDR torrent

ETTV Recommended Cam
Ready or Not 2019 HDCAM x264 AC3-ETRG torrent
It Chapter Two 2019.HDCAM.x264.AC3-ETRG torrent
Downton Abbey 2019 720p HDCAM-GETB8 torrent
Hustlers 2019 HDCAM x264 AC3-ETRG torrent

ETTV Recommended Foreign
Kiss Kiss (2019) x264 720p UNRATED WEB-DL Eng Subs {Dual Audio} [Hindi ORG DD 2.0 + English 2.0] Exclusive By DREDD torrent
Long Live The King 720p WEB-DL x264 Ganool torrent
Anbanavan Asaradhavan Adangadhavan (2017) 720p UNCUT HDRip x264 Eng Subs [Dual Audio] [Hindi DD 2.0 - Tamil 5.1] Exclusive By -=!Dr.STAR!=- torrent
Next Gen (2018) x264 720p WEBRiP Eng Subs {Dual Audio} [Hindi ORG DD 5.1 + English 2.0] Exclusive By DREDD torrent


Download Torrent "Pokemon the Movie 2000 (1999) 1080p BDRip x265 10bit DTS-HD MA 2.0 - Goki"

IMDB Details
Description:

N/A

Genre:

N/A

Download Torrent (Magnet)
Download Torrent (File)
Seeds: 57
Leechers: 21
Completed: 122 
Last Checked: 10-09-2019 04:33:59


Loading...
Details
Title:Pokemon the Movie 2000 (1999) 1080p BDRip x265 10bit DTS-HD MA 2.0 - Goki
Description:


Media Information

Unique ID                                : 127255152777013002735852921511302062902 (0x5FBC7370382ABC84197694DB20CEE336)
Complete name                            : Pokemon the Movie 2000 (1999) 1080p BDRip x265 10bit DTS-HD MA 2.0 - Goki.mkv
Format                                   : Matroska
Format version                           : Version 4
File size                                : 7.24 GiB
Duration                                 : 1 h 20 min
Overall bit rate mode                    : Variable
Overall bit rate                         : 12.9 Mb/s
Movie name                               : Pokemon the Movie 2000 (1999) 1080p BDRip x265 10bit DTS-HD MA 2.0 - Goki
Encoded date                             : UTC 2019-09-10 01:57:31
Writing application                      : mkvmerge v28.2.0 ('The Awakening') 64-bit
Writing library                          : libebml v1.3.6 + libmatroska v1.4.9

Video
ID                                       : 1
Format                                   : HEVC
Format/Info                              : High Efficiency Video Coding
Format profile                           : Main [email protected]@Main
Codec ID                                 : V_MPEGH/ISO/HEVC
Duration                                 : 1 h 20 min
Bit rate                                 : 11.3 Mb/s
Width                                    : 1 920 pixels
Height                                   : 1 080 pixels
Display aspect ratio                     : 16:9
Frame rate mode                          : Constant
Frame rate                               : 23.976 (24000/1001) FPS
Color space                              : YUV
Chroma subsampling                       : 4:2:0
Bit depth                                : 10 bits
Bits/(Pixel*Frame)                       : 0.228
Stream size                              : 6.34 GiB (88%)
Writing library                          : x265 2.9+8-27d8424c799d:[Windows][MSVC 1915][64 bit] 10bit
Encoding settings                        : cpuid=1111039 / frame-threads=2 / numa-pools=4 / wpp / no-pmode / no-pme / no-psnr / no-ssim / log-level=2 / input-csp=1 / input-res=1920x1080 / interlace=0 / total-frames=0 / level-idc=0 / high-tier=1 / uhd-bd=0 / ref=4 / no-allow-non-conformance / no-repeat-headers / annexb / no-aud / no-hrd / info / hash=0 / no-temporal-layers / open-gop / min-keyint=23 / keyint=250 / gop-lookahead=0 / bframes=8 / b-adapt=2 / b-pyramid / bframe-bias=0 / rc-lookahead=100 / lookahead-slices=4 / scenecut=40 / radl=0 / no-intra-refresh / ctu=64 / min-cu-size=8 / no-rect / no-amp / max-tu-size=32 / tu-inter-depth=2 / tu-intra-depth=2 / limit-tu=4 / rdoq-level=2 / dynamic-rd=0.00 / no-ssim-rd / signhide / no-tskip / nr-intra=0 / nr-inter=0 / no-constrained-intra / no-strong-intra-smoothing / max-merge=3 / limit-refs=2 / limit-modes / me=3 / subme=5 / merange=57 / temporal-mvp / weightp / weightb / no-analyze-src-pics / deblock=0:0 / sao / no-sao-non-deblock / rd=6 / no-early-skip / rskip / no-fast-intra / no-tskip-fast / no-cu-lossless / b-intra / no-splitrd-skip / rdpenalty=0 / psy-rd=1.30 / psy-rdoq=2.00 / no-rd-refine / no-lossless / cbqpoffs=0 / crqpoffs=0 / rc=crf / crf=18.0 / qcomp=0.60 / qpstep=4 / stats-write=0 / stats-read=0 / ipratio=1.40 / pbratio=1.30 / aq-mode=2 / aq-strength=1.10 / cutree / zone-count=0 / no-strict-cbr / qg-size=32 / no-rc-grain / qpmax=69 / qpmin=0 / no-const-vbv / sar=1 / overscan=0 / videoformat=5 / range=0 / colorprim=2 / transfer=2 / colormatrix=2 / chromaloc=0 / display-window=0 / max-cll=0,0 / min-luma=0 / max-luma=1023 / log2-max-poc-lsb=8 / vui-timing-info / vui-hrd-info / slices=1 / no-opt-qp-pps / no-opt-ref-list-length-pps / no-multi-pass-opt-rps / scenecut-bias=0.05 / no-opt-cu-delta-qp / no-aq-motion / no-hdr / no-hdr-opt / no-dhdr10-opt / no-idr-recovery-sei / analysis-reuse-level=5 / scale-factor=0 / refine-intra=0 / refine-inter=0 / refine-mv=0 / no-limit-sao / ctu-info=0 / no-lowpass-dct / refine-mv-type=0 / copy-pic=1 / max-ausize-factor=1.0 / no-dynamic-refine / no-single-sei
Language                                 : English
Default                                  : Yes
Forced                                   : No

Audio
ID                                       : 2
Format                                   : DTS XLL
Format/Info                              : Digital Theater Systems
Commercial name                          : DTS-HD Master Audio
Codec ID                                 : A_DTS
Duration                                 : 1 h 20 min
Bit rate mode                            : Variable
Bit rate                                 : 1 601 kb/s
Channel(s)                               : 2 channels
Channel layout                           : L R
Sampling rate                            : 48.0 kHz
Frame rate                               : 93.750 FPS (512 SPF)
Bit depth                                : 16 bits
Compression mode                         : Lossless
Stream size                              : 917 MiB (12%)
Title                                    : 2.0
Language                                 : English
Default                                  : Yes
Forced                                   : No

Text
ID                                       : 3
Format                                   : UTF-8
Codec ID                                 : S_TEXT/UTF8
Codec ID/Info                            : UTF-8 Plain Text
Duration                                 : 1 h 19 min
Bit rate                                 : 34 b/s
Count of elements                        : 557
Stream size                              : 20.1 KiB (0%)
Language                                 : English
Default                                  : No
Forced                                   : No

Menu
00:00:00.000                             : :Chapter 1
00:04:47.621                             : :Chapter 2
00:10:14.239                             : :Chapter 3
00:18:53.007                             : :Chapter 4
00:26:29.630                             : :Chapter 5
00:34:14.886                             : :Chapter 6
00:41:54.262                             : :Chapter 7
00:49:55.075                             : :Chapter 8
00:56:30.429                             : :Chapter 9
01:03:50.952                             : :Chapter 10
01:12:09.575                             : :Chapter 11
01:15:38.534                             : :Chapter 12
01:20:01.922                             : :Chapter 13

Source Information

Unique ID                                : 211199146986138793688329182823297577714 (0x9EE379E45FCF37508911BC05F52FF2F2)
Complete name                            : Pokemon.Power.of.One.1999.1080p.BluRay.REMUX.AVC.DTS-HD.MA.2.0-Mx.mkv
Format                                   : Matroska
Format version                           : Version 4
File size                                : 17.6 GiB
Duration                                 : 1 h 20 min
Overall bit rate mode                    : Variable
Overall bit rate                         : 31.5 Mb/s
Encoded date                             : UTC 2016-11-13 17:17:59
Writing application                      : mkvmerge v9.5.0 ('Quiet Fire') 64bit
Writing library                          : libebml v1.3.4 + libmatroska v1.4.5

Video
ID                                       : 1
Format                                   : AVC
Format/Info                              : Advanced Video Codec
Format profile                           : [email protected]
Format settings                          : CABAC / 4 Ref Frames
Format settings, CABAC                   : Yes
Format settings, RefFrames               : 4 frames
Codec ID                                 : V_MPEG4/ISO/AVC
Duration                                 : 1 h 20 min
Bit rate mode                            : Variable
Bit rate                                 : 29.9 Mb/s
Maximum bit rate                         : 35.0 Mb/s
Width                                    : 1 920 pixels
Height                                   : 1 080 pixels
Display aspect ratio                     : 16:9
Frame rate mode                          : Constant
Frame rate                               : 23.976 (24000/1001) FPS
Standard                                 : NTSC
Color space                              : YUV
Chroma subsampling                       : 4:2:0
Bit depth                                : 8 bits
Scan type                                : Progressive
Bits/(Pixel*Frame)                       : 0.602
Stream size                              : 16.7 GiB (95%)
Title                                    : MPEG-4 AVC Video / 29932 kbps / 1080p / 23.976 fps / 16:9 / High Profile 4.1
Language                                 : English
Default                                  : Yes
Forced                                   : No
Color range                              : Limited
Color primaries                          : BT.709
Transfer characteristics                 : BT.709
Matrix coefficients                      : BT.709

Audio
ID                                       : 2
Format                                   : DTS XLL
Format/Info                              : Digital Theater Systems
Commercial name                          : DTS-HD Master Audio
Codec ID                                 : A_DTS
Duration                                 : 1 h 20 min
Bit rate mode                            : Variable
Bit rate                                 : 1 601 kb/s
Channel(s)                               : 2 channels
Channel layout                           : L R
Sampling rate                            : 48.0 kHz
Frame rate                               : 93.750 FPS (512 SPF)
Bit depth                                : 16 bits
Compression mode                         : Lossless
Stream size                              : 917 MiB (5%)
Title                                    : DTS-HD Master Audio / 2.0 / 48 kHz / 1601 kbps / 16-bit
Language                                 : English
Default                                  : Yes
Forced                                   : No

Menu
00:00:00.000                             : en:Chapter 1
00:04:47.621                             : en:Chapter 2
00:10:14.239                             : en:Chapter 3
00:18:53.007                             : en:Chapter 4
00:26:29.630                             : en:Chapter 5
00:34:14.886                             : en:Chapter 6
00:41:54.262                             : en:Chapter 7
00:49:55.075                             : en:Chapter 8
00:56:30.429                             : en:Chapter 9
01:03:50.952                             : en:Chapter 10
01:12:09.575                             : en:Chapter 11
01:15:38.534                             : en:Chapter 12
01:20:01.922                             : en:Chapter 13

.........................................................................................................................................

Category:Anime > Dubbed/Subbed
Lang:English  English
Total Size:7.24 GB
Info Hash:9ba89c1b065cf80b9d168370d1fdb8bacda342e9
Added By:Goki
Date Added:10-09-2019 04:33:55

Files

File List: 
 File Size
Pokemon the Movie 2000 (1999) 1080p BDRip x265 10bit DTS-HD MA 2.0 - Goki-fanart.jpg193.84 kB
Pokemon the Movie 2000 (1999) 1080p BDRip x265 10bit DTS-HD MA 2.0 - Goki-poster.jpg124.56 kB
Pokemon the Movie 2000 (1999) 1080p BDRip x265 10bit DTS-HD MA 2.0 - Goki.mkv7.24 GB
Pokemon the Movie 2000 (1999) 1080p BDRip x265 10bit DTS-HD MA 2.0 - Goki.nfo7.77 kB



Loading...
Comments

There are currently no comments. Be the first one to write something !

Disclaimer: None of the files shown here are actually hosted or transmitted by this server. The links are provided solely by this site's users. The site moderation is also a service provided by the site's users. The administrator of this site (ettv.be) cannot be held responsible for what its users post, or any other actions of its users. You may not use this site to distribute or download any material when you do not have the legal rights to do so. It is your own responsibility to adhere to these terms.