Better Call Saul S05E02 altered carbon S02 jumanji the next level 2019 the gentlemen 2019 the curse of oak island s07e14 Chicago PD Superman Red Son 2020 evo Riverdale S04E14 68 Whiskey S01E07 The Magicians S05E08 Bad Boys for Life 2020 survivor the flash s06e13 rq.mp4 This Is Us s04e15 picard s01e06 I Am Not Okay with This the invisible man 2020 nancy drew Jumanji survivor s40e03 parasite The Call Of Cthulhu Chicago Wwe ddr chicago med altered carbon Better Call Saul sonic the hedgehog 2020 SEAL Team S03E11 etrg ita Chicago Fire S08E15 Chicago PD s07e15 Joker 2019 the flash Hunters star trek picard riverdale chicago med s05e15 Star Trek Picard S01E05 The walking dead Star Trek Picard S01E06 Seal team the walking dead s10e09 spies in disguise Fantasy Island 2020 etmovies Better Call Saul S05E01 Chicago P.D. S07E15 knives out 2019 Legends of Tomorrow The Goldbergs S07E16 Star Wars The Rise of Skywalker 2019 Altered Carbon S02E01 NCIS frozen ii 2019 SEAL Team S03E12 hindi picard The Call of the Wild 2020 ethd Chicago Fire ettv STAR WARS yts birds of prey (and the fantabulous emancipation of one harley quinn) 2020 Xxx the magicians 
Warning! Use a V.P.N when Downloading Torrents!
Your IP Address is 3.229.118.253. Location is United States
Your Internet Provider is tracking your torrent activity! Hide your IP ADDRESS with a V.P.N!
We strongly recommend using ExpressVP-N to anonymize your torrenting. 30 Day Money Back Guarantee!
Try it Now!
ETTV Recommended TV Shows
SEAL.Team.S03E11.WEB.x264-XLF[ettv] torrent
Chicago.Med.S05E15.WEB.x264-XLF[ettv] torrent
Chicago.Fire.S08E15.WEB.x264-XLF[ettv] torrent
Chicago.PD.S07E15.WEB.h264-TBS[ettv] torrent

ETTV Recommended SD
Philophobia.Or.The.Fear.Of.Falling.In.Love.2019.BRRip.XviD.AC3-EVO torrent
Jumanji.The.Next.Level.2019.HDRip.XviD.AC3-EVO torrent
Bombshell.2019.BDRip.XviD.AC3-EVO torrent
Spies.In.Disguise.2019.BRRip.XViD.AC3-ETRG torrent

ETTV Recommended HD
Ride.Like.A.Girl.2019.1080p.REPACK.BluRay.x264-PFa[EtHD] torrent
Inherit.The.Viper.2019.1080p.Bluray.DTS-HD.MA.5.1.X264-EVO[EtHD] torrent
Uncut Gems.2019.1080p.Bluray.DTS-HD.MA.5.1.X264-EVO[EtHD] torrent
Wonder.2017.BRRip.1080p.HEVC.HDR.Eng.Fre.Spa.DD5.1.ETRG torrent

ETTV Recommended UHD
Frozen II 2019.MULTi.UHD.BluRay.2160p.HDR.TrueHD.Atmos.7.1.HEVC.DDR torrent
Queen and Slim.2019.UHD.BluRay.2160p.HDR.Atmos.7.1.HEVC-DDR torrent
Midway 2019.MULTi.UHD.BluRay.2160p.HDR.TrueHD.Atmos.7.1.HEVC.DDR torrent
Wonder.2017.BDRip.2160p.UHD.HDR.Eng.Fre.Spa.TrueHD.DD5.1.ETRG torrent

ETTV Recommended Cam
Emma 2020 720p HDCAM-C1NEM4 torrent
Sonic the Hedgehog.2020.READNFO.HDCAM.x264-ETRG torrent
Brahms The Boy 2 2020 HDCAM x264 -ETRG torrent
The Call of the Wild 2020 HDCAM NO ADS x264-ETRG torrent

ETTV Recommended Foreign
Ibiza Undead (2016) 720p WEBRip x264 [Dual Audio] [Hindi DD 2.0 - English 2.0] Exclusive By -=!Dr.STAR!=- torrent
Pokémon - Mewtwo Strikes Back - Evolution.2019.1080p.NF.WEB-DL.Multi.DD+5.1.x264-Telly torrent
Parasite 2019.MULTi.UHD.Bluray.2160p.HDR.Atmos.7.1.HEVC.(Kor Fr)-DDR torrent
Scavengers (2013) 720p BluRay x264 Eng Subs [Dual Audio] [Hindi DD 2.0 - English 5.1] Exclusive By -=!Dr.STAR!=- torrent


Download Torrent "Aladdin (2019) (1080p BluRay x265 HEVC 10bit DTS 7.1 Qman) [UTR]"

IMDB Details
Description:

A kind-hearted street urchin and a power-hungry Grand Vizier vie for a magic lamp that has the power to make their deepest wishes come true.

Genre:

Adventure, Family, Fantasy, Musical, Romance

Download Torrent (Magnet)
Download Torrent (File)
Seeds: 2,568
Leechers: 673
Completed: 10,483 
Last Checked: 11-09-2019 19:14:00


Loading...
Details
Title:Aladdin (2019) (1080p BluRay x265 HEVC 10bit DTS 7.1 Qman) [UTR]
Description:



Media Information

General
Format                                   : Matroska
Format version                           : Version 4 / Version 2
File size                                : 10.9 GiB
Duration                                 : 2 h 7 min
Overall bit rate                         : 12.1 Mb/s
Encoded date                             : UTC 2019-09-11 16:09:49
Writing application                      : mkvmerge v36.0.0 ('Is That Jazz?') 64-bit
Writing library                          : libebml v1.3.9 + libmatroska v1.5.2

Video
ID                                       : 1
Format                                   : HEVC
Format/Info                              : High Efficiency Video Coding
Format profile                           : Main [email protected]@Main
Codec ID                                 : V_MPEGH/ISO/HEVC
Duration                                 : 2 h 7 min
Bit rate                                 : 6 807 kb/s
Width                                    : 1 920 pixels
Height                                   : 804 pixels
Display aspect ratio                     : 2.40:1
Frame rate mode                          : Constant
Frame rate                               : 23.976 (24000/1001) FPS
Color space                              : YUV
Chroma subsampling                       : 4:2:0
Bit depth                                : 10 bits
Bits/(Pixel*Frame)                       : 0.184
Stream size                              : 6.09 GiB (56%)
Writing library                          : x265 3.1+11-de920e0a3183:[Windows][MSVC 1922][64 bit] 10bit
Encoding settings                        : cpuid=1111039 / frame-threads=4 / numa-pools=16 / wpp / no-pmode / no-pme / no-psnr / no-ssim / log-level=2 / input-csp=1 / input-res=1920x804 / interlace=0 / total-frames=184110 / level-idc=0 / high-tier=1 / uhd-bd=0 / ref=4 / no-allow-non-conformance / no-repeat-headers / annexb / no-aud / no-hrd / info / hash=0 / no-temporal-layers / open-gop / min-keyint=23 / keyint=250 / gop-lookahead=0 / bframes=8 / b-adapt=2 / b-pyramid / bframe-bias=0 / rc-lookahead=80 / lookahead-slices=4 / scenecut=40 / radl=0 / no-splice / no-intra-refresh / ctu=64 / min-cu-size=8 / rect / no-amp / max-tu-size=32 / tu-inter-depth=1 / tu-intra-depth=1 / limit-tu=0 / rdoq-level=2 / dynamic-rd=0.00 / no-ssim-rd / signhide / no-tskip / nr-intra=0 / nr-inter=0 / no-constrained-intra / no-strong-intra-smoothing / max-merge=3 / limit-refs=3 / limit-modes / me=3 / subme=5 / merange=57 / temporal-mvp / no-hme / weightp / no-weightb / no-analyze-src-pics / deblock=-3:-3 / no-sao / no-sao-non-deblock / rd=4 / no-early-skip / no-rskip / no-fast-intra / no-tskip-fast / no-cu-lossless / b-intra / no-splitrd-skip / rdpenalty=0 / psy-rd=1.00 / psy-rdoq=5.00 / no-rd-refine / no-lossless / cbqpoffs=-3 / crqpoffs=-3 / rc=crf / crf=18.0 / qcomp=0.60 / qpstep=4 / stats-write=0 / stats-read=0 / ipratio=1.40 / pbratio=1.30 / aq-mode=2 / aq-strength=1.00 / cutree / zone-count=0 / no-strict-cbr / qg-size=32 / no-rc-grain / qpmax=69 / qpmin=0 / no-const-vbv / sar=0 / overscan=0 / videoformat=5 / range=0 / colorprim=2 / transfer=2 / colormatrix=2 / chromaloc=0 / display-window=0cll=0,0 / min-luma=0 / max-luma=1023 / log2-max-poc-lsb=8 / vui-timing-info / vui-hrd-info / slices=1 / no-opt-qp-pps / no-opt-ref-list-length-pps / no-multi-pass-opt-rps / scenecut-bias=0.05 / no-opt-cu-delta-qp / no-aq-motion / no-hdr / no-hdr-opt / no-dhdr10-opt / no-idr-recovery-sei / analysis-reuse-level=5 / scale-factor=0 / refine-intra=0 / refine-inter=0 / refine-mv=0 / refine-ctu-distortion=0 / no-limit-sao / ctu-info=0 / no-lowpass-dct / refine-analysis-type=0 / copy-pic=1 / max-ausize-factor=1.0 / no-dynamic-refine / no-single-sei / no-hevc-aq / no-svt / no-field / qp-adaptation-range=1.00
Language                                 : English
Default                                  : Yes
Forced                                   : No

Audio
ID                                       : 2
Format                                   : DTS
Format/Info                              : Digital Theater Systems
Format profile                           : MA / Core
Mode                                     : 16
Format settings, Endianness              : Big
Codec ID                                 : A_DTS
Duration                                 : 2 h 7 min
Bit rate mode                            : Variable / Constant
Bit rate                                 : 5 316 kb/s / 1 509 kb/s
Channel(s)                               : 8 channels / 6 channels
Channel positions                        : Front: L C R, Side: L R, Back: L R, LFE / Front: L C R, Side: L R, LFE
Sampling rate                            : 48.0 kHz
Frame rate                               : 93.750 FPS (512 spf)
Bit depth                                : 24 bits
Compression mode                         : Lossless / Lossy
Stream size                              : 4.75 GiB (44%)
Language                                 : English
Default                                  : Yes
Forced                                   : No

Subtitle
ID                                       : 3
Format                                   : PGS
Muxing mode                              : zlib
Codec ID                                 : S_HDMV/PGS
Codec ID/Info                            : Picture based subtitle format used on BDs/HD-DVDs
Duration                                 : 2 h 7 min
Bit rate                                 : 47.1 kb/s
Count of elements                        : 4858
Stream size                              : 42.8 MiB (0%)
Language                                 : English
Default                                  : Yes
Forced                                   : No

Menu
00:00:00.000                             : en:Chapter 01
00:04:49.372                             : en:Chapter 02
00:13:04.658                             : en:Chapter 03
00:18:55.759                             : en:Chapter 04
00:26:18.410                             : en:Chapter 05
00:30:26.324                             : en:Chapter 06
00:39:51.889                             : en:Chapter 07
00:54:50.161                             : en:Chapter 08
01:02:18.651                             : en:Chapter 09
01:09:19.488                             : en:Chapter 10
01:21:53.033                             : en:Chapter 11
01:33:51.417                             : en:Chapter 12
01:38:48.380                             : en:Chapter 13
01:45:19.396                             : en:Chapter 14
01:53:07.030                             : en:Chapter 15
01:59:38.462                             : en:Chapter 16

Source Information
Release:
Unknown Source/NO-GROUP


Note From UTR
Whilst we are happy for our releases to be re-posted on a platform we aren't on, please do so in an 'as-is' format. We ask that you do not create a new torrent, include all descriptions you see above including the UTR logo, tags, notes and screenshots. If you'd like to become a permanent poster on a website we don't post to, feel free to get in contact with a UTR member.
If possible please donate: BTC 1QA5fum5AyXvWzdVCkQzUNvw3Ef15fHRaR



Category:Movies > HEVC/x265
Lang:English  English
Total Size:10.85 GB
Info Hash:d40351f51b79f78fae8d71003c25d2dba4ee0a66
Added By:UTR
Date Added:11-09-2019 19:13:57

Files

File List: 
 File Size
Aladdin.(2019).1080p.BluRay.10-bit.x265.DTS.7.1 Qman[UTR].mkv10.85 GB



Loading...
Comments

There are currently no comments. Be the first one to write something !

Disclaimer: None of the files shown here are actually hosted or transmitted by this server. The links are provided solely by this site's users. The site moderation is also a service provided by the site's users. The administrator of this site (ettv.be) cannot be held responsible for what its users post, or any other actions of its users. You may not use this site to distribute or download any material when you do not have the legal rights to do so. It is your own responsibility to adhere to these terms.