scary stories to tell in the dark 2019 power s06e04 hobbs and shaw etrg evo the secret life of pets 2 2019 Suits kabir singh suits s09e09 Joker 2019 dream girl  good boys 2019 spider man far from home pearson s01e10 childs play 2019 Anna  toy story 4 ethd godzilla king of the monsters 2019 HINDI pearson greenleaf s04e03 fast furious presents hobbs shaw 2019 American horror story ettv john wick chapter 3 – parabellum 2019 hustlers 2019 mayans mc s02e03 once upon a time in hollywood 2019 bachelor in paradise the challenge s34e04 yesterday 2019 ad astra 2019 aladdin 2019 avengers endgame 2019 wwe xxx Mr Mercedes toy story 4 2019 spiderman ddr spiderman far from home ITA  mr mercedes s03e02 the lion king 2019 basketball wives s08e14 anna 2019 Crawl 2019 fear the walking dead s05e14 spider man far from home 2019 幼女 mayans titans yts etmovies angel has fallen 2019 rambo last blood 2019 american horror story s09e01 it chapter two 2019 Titans s02e02 2.0 (2018) men in black international 2019 0 marvel week far from home Peaky blinders dark phoenix 2019 proper anal 
Warning! Use a VPN When Downloading Torrents!
Your IP Address is 3.227.233.55. Location is United States
Your Internet Provider is tracking your torrent activity! Hide your IP ADDRESS with a VPN!
We strongly recommend using TrustZone to anonymize your torrenting. 30 Day Money Back Guarantee!
Try it Now!
ETTV Recommended TV Shows
Pearson.S01E10.WEBRip.x264-TBS[ettv] torrent
Suits.S09E09.HDTV.x264-aAF[ettv] torrent
Deep.Water.UK.S01E06.HDTV.x264-RiVER[ettv] torrent
American.Horror.Story.S09E01.HDTV.x264-SVA[ettv] torrent

ETTV Recommended SD
Spider-Man.Far.from.Home.2019.BRRip.XViD.AC3-ETRG torrent
Deadtectives.2019.HDRip.XviD.AC3-EVO[EtMovies] torrent
Fast.and.Furious.Presents.Hobbs.and.Shaw.2019..HC.HDRip.x264.AC3-ETRG torrent
The.First.King.2019.BDRip.XviD.AC3-EVO torrent

ETTV Recommended HD
Spider Man Far from Home 2019 BluRay 1080p DTS-HD MA 7.1 x264-MTeam[EtHD] torrent
No.Surrender.2018.MULTi.1080p.BluRay.x264-THREESOME[EtHD] torrent
The.Tracker.2019.1080p.BluRay.x264-SADPANDA[EtHD] torrent
Fast.and.Furious.Presents.Hobbs.and.Shaw.2019.1080p.HC.HDRip.X264.AC3-EVO[EtHD] torrent

ETTV Recommended UHD
Resident Evil Vendetta 2017.MULTi.UHD.Blu-ray.2160p.HDR.Atmos.7.1.HEVC-DDR torrent
Rough Night.2017.MULTi.UHD.Blu-ray.2160p.HDR.Atmos.7.1.HEVC-DDR torrent
Spider-Man.Far From Home 2019.UHD.2160p.WEB-Rip..HDR.DDP.5.1-DDR[EtHD] torrent
Annabelle.Comes.Home.2019.MULTi.UHD.2160p.HDR.WEB-Rip.DDP.5.1.HEVC-DDR[EtHD] torrent

ETTV Recommended Cam
It Chapter Two 2019.HDCAM.x264.AC3-ETRG torrent
Downton Abbey 2019 720p HDCAM-GETB8 torrent
Hustlers 2019 HDCAM x264 AC3-ETRG torrent
Rambo Last Blood 2019 720p NEW HDCAM-GETB8 torrent

ETTV Recommended Foreign
Back Street Girls Gokudols The Movie 2019 720p BluRay x264 Ganool torrent
Kabir.Singh.2019.Hindi.HDRip..x264.AC3-ETRG torrent
Fast & Furious - Hobbs & Shaw (2019)[720p HC HDRip - HQ Line Auds - [Tamil + Telugu + Hin + Eng] - x264 - 1GB] torrent
Long Shot (2019) BRRip 720p [Hindi-Dub] x264 1XBET - KatmovieHD torrent


Download Torrent "Dark Phoenix 2019 1080p BluRay BDrip x265 DTS-HD MA 7.1 D0ct0rLew[SEV]"

IMDB Details
Description:

Jean Grey begins to develop incredible powers that corrupt and turn her into a Dark Phoenix. Now the X-Men will have to decide if the life of a team member is worth more than all of humanity.

Genre:

Action, Adventure, Sci-Fi

Download Torrent (Magnet)
Download Torrent (File)
Seeds: 131
Leechers: 175
Completed: 638 
Last Checked: 12-09-2019 03:34:55


Details
Title:Dark Phoenix 2019 1080p BluRay BDrip x265 DTS-HD MA 7.1 D0ct0rLew[SEV]
Description:



Screenshots
Source


Encode


Media Information

Unique ID                                : 199034970387338289159469125377098411002 (0x95BCBDAE90F835C08D81F52C94CE6BFA)
Complete name                            : Dark Phoenix 2019 1080p BluRay BDrip DTS-HD MA 7.1 D0ct0rLew[SEV].mkv
Format                                   : Matroska
Format version                           : Version 4
File size                                : 10.4 GiB
Duration                                 : 1 h 53 min
Overall bit rate mode                    : Variable
Overall bit rate                         : 13.1 Mb/s
Movie name                               : Dark Phoenix (2019)
Encoded date                             : UTC 2019-09-08 04:32:34
Writing application                      : mkvmerge v29.0.0 ('Like It Or Not') 64-bit
Writing library                          : libebml v1.3.6 + libmatroska v1.4.9

Video
ID                                       : 1
Format                                   : HEVC
Format/Info                              : High Efficiency Video Coding
Format profile                           : Main [email protected]@Main
Codec ID                                 : V_MPEGH/ISO/HEVC
Duration                                 : 1 h 53 min
Bit rate                                 : 7 812 kb/s
Width                                    : 1 920 pixels
Height                                   : 1 080 pixels
Display aspect ratio                     : 16:9
Frame rate mode                          : Constant
Frame rate                               : 23.976 (24000/1001) FPS
Color space                              : YUV
Chroma subsampling                       : 4:2:0
Bit depth                                : 10 bits
Bits/(Pixel*Frame)                       : 0.157
Stream size                              : 6.22 GiB (60%)
Writing library                          : x265 3.1+11-de920e0a3183:[Windows][MSVC 1922][64 bit] 10bit
Encoding settings                        : cpuid=1111039 / frame-threads=3 / numa-pools=8 / wpp / no-pmode / no-pme / no-psnr / no-ssim / log-level=2 / input-csp=1 / input-res=1920x1080 / interlace=0 / total-frames=163910 / level-idc=0 / high-tier=1 / uhd-bd=0 / ref=5 / no-allow-non-conformance / no-repeat-headers / annexb / no-aud / no-hrd / info / hash=0 / no-temporal-layers / open-gop / min-keyint=23 / keyint=250 / gop-lookahead=0 / bframes=16 / b-adapt=2 / b-pyramid / bframe-bias=0 / rc-lookahead=90 / lookahead-slices=0 / scenecut=40 / radl=0 / no-splice / no-intra-refresh / ctu=64 / min-cu-size=8 / no-rect / no-amp / max-tu-size=32 / tu-inter-depth=4 / tu-intra-depth=4 / limit-tu=4 / rdoq-level=2 / dynamic-rd=0.00 / no-ssim-rd / signhide / no-tskip / nr-intra=0 / nr-inter=0 / no-constrained-intra / no-strong-intra-smoothing / max-merge=4 / limit-refs=1 / limit-modes / me=3 / subme=7 / merange=92 / temporal-mvp / no-hme / weightp / weightb / no-analyze-src-pics / deblock=0:0 / no-sao / no-sao-non-deblock / rd=6 / no-early-skip / rskip / no-fast-intra / no-tskip-fast / no-cu-lossless / b-intra / no-splitrd-skip / rdpenalty=0 / psy-rd=1.40 / psy-rdoq=1.00 / no-rd-refine / no-lossless / cbqpoffs=0 / crqpoffs=0 / rc=crf / crf=16.0 / qcomp=0.61 / qpstep=4 / stats-write=0 / stats-read=0 / ipratio=1.40 / pbratio=1.30 / aq-mode=3 / aq-strength=1.00 / cutree / zone-count=0 / no-strict-cbr / qg-size=32 / no-rc-grain / qpmax=69 / qpmin=0 / no-const-vbv / sar=0 / overscan=0 / videoformat=5 / range=0 / colorprim=2 / transfer=2 / colormatrix=2 / chromaloc=0 / display-window=0cll=0,0 / min-luma=0 / max-luma=1023 / log2-max-poc-lsb=8 / vui-timing-info / vui-hrd-info / slices=1 / no-opt-qp-pps / no-opt-ref-list-length-pps / no-multi-pass-opt-rps / scenecut-bias=0.05 / no-opt-cu-delta-qp / no-aq-motion / no-hdr / no-hdr-opt / no-dhdr10-opt / no-idr-recovery-sei / analysis-reuse-level=5 / scale-factor=0 / refine-intra=0 / refine-inter=0 / refine-mv=0 / refine-ctu-distortion=0 / no-limit-sao / ctu-info=0 / no-lowpass-dct / refine-analysis-type=0 / copy-pic=1 / max-ausize-factor=1.0 / no-dynamic-refine / no-single-sei / no-hevc-aq / no-svt / no-field / qp-adaptation-range=1.00
Default                                  : Yes
Forced                                   : No

Audio #1
ID                                       : 22
Format                                   : DTS XLL
Format/Info                              : Digital Theater Systems
Commercial name                          : DTS-HD Master Audio
Codec ID                                 : A_DTS
Duration                                 : 1 h 53 min
Bit rate mode                            : Variable
Bit rate                                 : 5 074 kb/s
Channel(s)                               : 8 channels
Channel layout                           : C L R LFE Lb Rb Lss Rss
Sampling rate                            : 48.0 kHz
Frame rate                               : 93.750 FPS (512 SPF)
Bit depth                                : 24 bits
Compression mode                         : Lossless
Stream size                              : 4.04 GiB (39%)
Title                                    : DTS-HD Master Audio / 7.1 / 48 kHz / 5074 kbps / 24-bit
Language                                 : English
Default                                  : Yes
Forced                                   : No

Audio #2
ID                                       : 23
Format                                   : AAC LC
Format/Info                              : Advanced Audio Codec Low Complexity
Codec ID                                 : A_AAC-2
Duration                                 : 1 h 53 min
Bit rate                                 : 128 kb/s
Channel(s)                               : 2 channels
Channel layout                           : L R
Sampling rate                            : 48.0 kHz
Frame rate                               : 46.875 FPS (1024 SPF)
Compression mode                         : Lossy
Delay relative to video                  : 9 ms
Stream size                              : 104 MiB (1%)
Title                                    : Commentary by Simon Kinberg and Hutch Parker
Language                                 : English
Default                                  : No
Forced                                   : No

Text #1
ID                                       : 2
Format                                   : UTF-8
Codec ID                                 : S_TEXT/UTF8
Codec ID/Info                            : UTF-8 Plain Text
Duration                                 : 1 h 53 min
Bit rate                                 : 125 b/s
Count of elements                        : 2268
Stream size                              : 105 KiB (0%)
Title                                    : Commentary by Simon Kinberg and Hutch Parker
Language                                 : English
Default                                  : No
Forced                                   : No

Text #2
ID                                       : 3
Format                                   : UTF-8
Codec ID                                 : S_TEXT/UTF8
Codec ID/Info                            : UTF-8 Plain Text
Duration                                 : 1 h 10 min
Bit rate                                 : 1 b/s
Count of elements                        : 8
Stream size                              : 577 Bytes (0%)
Title                                    : For Foreign/Alien Languages
Language                                 : English
Default                                  : Yes
Forced                                   : No

Text #3
ID                                       : 4
Format                                   : UTF-8
Codec ID                                 : S_TEXT/UTF8
Codec ID/Info                            : UTF-8 Plain Text
Duration                                 : 1 h 53 min
Bit rate                                 : 45 b/s
Count of elements                        : 1437
Stream size                              : 37.8 KiB (0%)
Title                                    : SDH subs by D0ct0rLew
Default                                  : No
Forced                                   : No

Text #4
ID                                       : 5
Format                                   : VobSub
Muxing mode                              : zlib
Codec ID                                 : S_VOBSUB
Codec ID/Info                            : Picture based subtitle format used on DVDs
Duration                                 : 1 h 52 min
Bit rate                                 : 2 157 b/s
Count of elements                        : 1101
Stream size                              : 1.74 MiB (0%)
Language                                 : Swedish
Default                                  : No
Forced                                   : No

Text #5
ID                                       : 6
Format                                   : VobSub
Muxing mode                              : zlib
Codec ID                                 : S_VOBSUB
Codec ID/Info                            : Picture based subtitle format used on DVDs
Duration                                 : 1 h 52 min
Bit rate                                 : 2 718 b/s
Count of elements                        : 1099
Stream size                              : 2.20 MiB (0%)
Language                                 : Tamil
Default                                  : No
Forced                                   : No

Text #6
ID                                       : 7
Format                                   : VobSub
Muxing mode                              : zlib
Codec ID                                 : S_VOBSUB
Codec ID/Info                            : Picture based subtitle format used on DVDs
Duration                                 : 1 h 52 min
Bit rate                                 : 2 400 b/s
Count of elements                        : 1099
Stream size                              : 1.94 MiB (0%)
Language                                 : Telugu
Default                                  : No
Forced                                   : No

Text #7
ID                                       : 8
Format                                   : VobSub
Muxing mode                              : zlib
Codec ID                                 : S_VOBSUB
Codec ID/Info                            : Picture based subtitle format used on DVDs
Duration                                 : 1 h 52 min
Bit rate                                 : 2 249 b/s
Count of elements                        : 1103
Stream size                              : 1.82 MiB (0%)
Language                                 : Ukrainian
Default                                  : No
Forced                                   : No

Text #8
ID                                       : 9
Format                                   : VobSub
Muxing mode                              : zlib
Codec ID                                 : S_VOBSUB
Codec ID/Info                            : Picture based subtitle format used on DVDs
Duration                                 : 1 h 52 min
Bit rate                                 : 2 010 b/s
Count of elements                        : 798
Stream size                              : 1.62 MiB (0%)
Language                                 : Danish
Default                                  : No
Forced                                   : No

Text #9
ID                                       : 10
Format                                   : VobSub
Muxing mode                              : zlib
Codec ID                                 : S_VOBSUB
Codec ID/Info                            : Picture based subtitle format used on DVDs
Duration                                 : 1 h 52 min
Bit rate                                 : 2 249 b/s
Count of elements                        : 1099
Stream size                              : 1.82 MiB (0%)
Language                                 : Estonian
Default                                  : No
Forced                                   : No

Text #10
ID                                       : 11
Format                                   : VobSub
Muxing mode                              : zlib
Codec ID                                 : S_VOBSUB
Codec ID/Info                            : Picture based subtitle format used on DVDs
Duration                                 : 1 h 52 min
Bit rate                                 : 2 059 b/s
Count of elements                        : 1099
Stream size                              : 1.66 MiB (0%)
Language                                 : Finnish
Default                                  : No
Forced                                   : No

Text #11
ID                                       : 12
Format                                   : VobSub
Muxing mode                              : zlib
Codec ID                                 : S_VOBSUB
Codec ID/Info                            : Picture based subtitle format used on DVDs
Duration                                 : 1 h 52 min
Bit rate                                 : 2 204 b/s
Count of elements                        : 1100
Stream size                              : 1.78 MiB (0%)
Language                                 : Hindi
Default                                  : No
Forced                                   : No

Text #12
ID                                       : 13
Format                                   : VobSub
Muxing mode                              : zlib
Codec ID                                 : S_VOBSUB
Codec ID/Info                            : Picture based subtitle format used on DVDs
Duration                                 : 1 h 52 min
Bit rate                                 : 2 222 b/s
Count of elements                        : 1102
Stream size                              : 1.80 MiB (0%)
Language                                 : Latvian
Default                                  : No
Forced                                   : No

Text #13
ID                                       : 14
Format                                   : VobSub
Muxing mode                              : zlib
Codec ID                                 : S_VOBSUB
Codec ID/Info                            : Picture based subtitle format used on DVDs
Duration                                 : 1 h 52 min
Bit rate                                 : 2 085 b/s
Count of elements                        : 1100
Stream size                              : 1.68 MiB (0%)
Language                                 : Lithuanian
Default                                  : No
Forced                                   : No

Text #14
ID                                       : 15
Format                                   : VobSub
Muxing mode                              : zlib
Codec ID                                 : S_VOBSUB
Codec ID/Info                            : Picture based subtitle format used on DVDs
Duration                                 : 1 h 52 min
Bit rate                                 : 2 130 b/s
Count of elements                        : 1101
Stream size                              : 1.72 MiB (0%)
Language                                 : Norwegian
Default                                  : No
Forced                                   : No

Text #15
ID                                       : 16
Format                                   : VobSub
Muxing mode                              : zlib
Codec ID                                 : S_VOBSUB
Codec ID/Info                            : Picture based subtitle format used on DVDs
Duration                                 : 1 h 52 min
Bit rate                                 : 2 215 b/s
Count of elements                        : 1100
Stream size                              : 1.79 MiB (0%)
Language                                 : Russian
Default                                  : No
Forced                                   : No

Text #16
ID                                       : 17
Format                                   : VobSub
Muxing mode                              : zlib
Codec ID                                 : S_VOBSUB
Codec ID/Info                            : Picture based subtitle format used on DVDs
Duration                                 : 1 h 53 min
Bit rate                                 : 6 678 b/s
Count of elements                        : 2176
Stream size                              : 5.43 MiB (0%)
Title                                    : Commentary by Simon Kinberg and Hutch Parker
Language                                 : Danish
Default                                  : No
Forced                                   : No

Text #17
ID                                       : 18
Format                                   : VobSub
Muxing mode                              : zlib
Codec ID                                 : S_VOBSUB
Codec ID/Info                            : Picture based subtitle format used on DVDs
Duration                                 : 1 h 53 min
Bit rate                                 : 6 398 b/s
Count of elements                        : 2173
Stream size                              : 5.20 MiB (0%)
Title                                    : Commentary by Simon Kinberg and Hutch Parker
Language                                 : Finnish
Default                                  : No
Forced                                   : No

Text #18
ID                                       : 19
Format                                   : VobSub
Muxing mode                              : zlib
Codec ID                                 : S_VOBSUB
Codec ID/Info                            : Picture based subtitle format used on DVDs
Duration                                 : 1 h 53 min
Bit rate                                 : 6 810 b/s
Count of elements                        : 2176
Stream size                              : 5.54 MiB (0%)
Title                                    : Commentary by Simon Kinberg and Hutch Parker
Language                                 : Norwegian
Default                                  : No
Forced                                   : No

Text #19
ID                                       : 20
Format                                   : VobSub
Muxing mode                              : zlib
Codec ID                                 : S_VOBSUB
Codec ID/Info                            : Picture based subtitle format used on DVDs
Duration                                 : 1 h 53 min
Bit rate                                 : 6 494 b/s
Count of elements                        : 2169
Stream size                              : 5.28 MiB (0%)
Title                                    : Commentary by Simon Kinberg and Hutch Parker
Language                                 : Russian
Default                                  : No
Forced                                   : No

Text #20
ID                                       : 21
Format                                   : VobSub
Muxing mode                              : zlib
Codec ID                                 : S_VOBSUB
Codec ID/Info                            : Picture based subtitle format used on DVDs
Duration                                 : 1 h 53 min
Bit rate                                 : 7 940 b/s
Count of elements                        : 2176
Stream size                              : 6.46 MiB (0%)
Title                                    : Commentary by Simon Kinberg and Hutch Parker
Language                                 : Swedish
Default                                  : No
Forced                                   : No

Menu
00:00:00.000                             : en:Chapter 1
00:03:28.875                             : en:Chapter 2
00:07:34.621                             : en:Chapter 3
00:11:42.201                             : en:Chapter 4
00:15:44.110                             : en:Chapter 5
00:18:37.408                             : en:Chapter 6
00:25:24.481                             : en:Chapter 7
00:31:40.357                             : en:Chapter 8
00:34:19.307                             : en:Chapter 9
00:40:07.447                             : en:Chapter 10
00:44:36.090                             : en:Chapter 11
00:49:07.778                             : en:Chapter 12
00:55:38.168                             : en:Chapter 13
00:58:57.409                             : en:Chapter 14
01:02:57.190                             : en:Chapter 15
01:10:40.111                             : en:Chapter 16
01:13:42.418                             : en:Chapter 17
01:19:33.477                             : en:Chapter 18
01:22:35.701                             : en:Chapter 19
01:25:49.061                             : en:Chapter 20
01:30:38.350                             : en:Chapter 21
01:32:48.188                             : en:Chapter 22
01:37:59.624                             : en:Chapter 23
01:45:01.045                             : en:Chapter 24

Source Media Information

Unique ID                                : 322577348903438076338982498411154726839 (0xF2AE23375B2DA35BDC59FC8B5CCB5FB7)
Complete name                            : Dark.Phoenix.2019.1080p.BluRay.REMUX.AVC.DTS-HD.MA.7.1-EPSiLON.mkv
Format                                   : Matroska
Format version                           : Version 4
File size                                : 24.3 GiB
Duration                                 : 1 h 53 min
Overall bit rate mode                    : Variable
Overall bit rate                         : 30.6 Mb/s
Movie name                               : Dark Phoenix (2019)
Encoded date                             : UTC 2019-09-01 15:34:24
Writing application                      : mkvmerge v35.0.0 ('All The Love In The World') 64-bit
Writing library                          : libebml v1.3.9 + libmatroska v1.5.2
IMDB                                     : tt6565702
TMDB                                     : movie/320288

Video
ID                                       : 1
Format                                   : AVC
Format/Info                              : Advanced Video Codec
Format profile                           : [email protected]
Format settings                          : CABAC / 4 Ref Frames
Format settings, CABAC                   : Yes
Format settings, RefFrames               : 4 frames
Codec ID                                 : V_MPEG4/ISO/AVC
Duration                                 : 1 h 53 min
Bit rate mode                            : Variable
Bit rate                                 : 24.6 Mb/s
Maximum bit rate                         : 31.0 Mb/s
Width                                    : 1 920 pixels
Height                                   : 1 080 pixels
Display aspect ratio                     : 16:9
Frame rate mode                          : Constant
Frame rate                               : 23.976 (24000/1001) FPS
Color space                              : YUV
Chroma subsampling                       : 4:2:0
Bit depth                                : 8 bits
Scan type                                : Progressive
Bits/(Pixel*Frame)                       : 0.494
Stream size                              : 19.6 GiB (80%)
Title                                    : MPEG-4 AVC Video / 24961 kbps / 1080p / 23.976 fps / 16:9 / High Profile 4.1
Language                                 : English
Default                                  : Yes
Forced                                   : No

Audio #1
ID                                       : 2
Format                                   : DTS XLL
Format/Info                              : Digital Theater Systems
Commercial name                          : DTS-HD Master Audio
Codec ID                                 : A_DTS
Duration                                 : 1 h 53 min
Bit rate mode                            : Variable
Bit rate                                 : 5 074 kb/s
Channel(s)                               : 8 channels
Channel layout                           : C L R LFE Lb Rb Lss Rss
Sampling rate                            : 48.0 kHz
Frame rate                               : 93.750 FPS (512 SPF)
Bit depth                                : 24 bits
Compression mode                         : Lossless
Stream size                              : 4.04 GiB (17%)
Title                                    : DTS-HD Master Audio / 7.1 / 48 kHz / 5074 kbps / 24-bit
Language                                 : English
Default                                  : Yes
Forced                                   : No

Audio #2
ID                                       : 3
Format                                   : AC-3
Format/Info                              : Audio Coding 3
Commercial name                          : Dolby Digital
Codec ID                                 : A_AC3
Duration                                 : 1 h 53 min
Bit rate mode                            : Constant
Bit rate                                 : 224 kb/s
Channel(s)                               : 2 channels
Channel layout                           : L R
Sampling rate                            : 48.0 kHz
Frame rate                               : 31.250 FPS (1536 SPF)
Bit depth                                : 16 bits
Compression mode                         : Lossy
Stream size                              : 183 MiB (1%)
Title                                    : Commentary by procuder Huch Parker and writer/director Simon Kinberg
Language                                 : English
Service kind                             : Complete Main
Default                                  : No
Forced                                   : No

Text #1
ID                                       : 4
Format                                   : PGS
Codec ID                                 : S_HDMV/PGS
Codec ID/Info                            : Picture based subtitle format used on BDs/HD-DVDs
Duration                                 : 31 min 20 s
Bit rate                                 : 268 b/s
Count of elements                        : 8
Stream size                              : 61.6 KiB (0%)
Title                                    : Forced for foreign parts
Language                                 : English
Default                                  : Yes
Forced                                   : Yes

Text #2
ID                                       : 5
Format                                   : PGS
Codec ID                                 : S_HDMV/PGS
Codec ID/Info                            : Picture based subtitle format used on BDs/HD-DVDs
Duration                                 : 1 h 53 min
Bit rate                                 : 27.8 kb/s
Count of elements                        : 2830
Stream size                              : 22.6 MiB (0%)
Title                                    : SDH
Language                                 : English
Default                                  : No
Forced                                   : No

Text #3
ID                                       : 6
Format                                   : PGS
Codec ID                                 : S_HDMV/PGS
Codec ID/Info                            : Picture based subtitle format used on BDs/HD-DVDs
Duration                                 : 1 h 52 min
Bit rate                                 : 19.3 kb/s
Count of elements                        : 1594
Stream size                              : 15.6 MiB (0%)
Language                                 : Danish
Default                                  : No
Forced                                   : No

Text #4
ID                                       : 7
Format                                   : PGS
Codec ID                                 : S_HDMV/PGS
Codec ID/Info                            : Picture based subtitle format used on BDs/HD-DVDs
Duration                                 : 1 h 52 min
Bit rate                                 : 22.0 kb/s
Count of elements                        : 2198
Stream size                              : 17.8 MiB (0%)
Language                                 : Estonian
Default                                  : No
Forced                                   : No

Text #5
ID                                       : 8
Format                                   : PGS
Codec ID                                 : S_HDMV/PGS
Codec ID/Info                            : Picture based subtitle format used on BDs/HD-DVDs
Duration                                 : 1 h 52 min
Bit rate                                 : 20.4 kb/s
Count of elements                        : 2198
Stream size                              : 16.5 MiB (0%)
Language                                 : Finnish
Default                                  : No
Forced                                   : No

Text #6
ID                                       : 9
Format                                   : PGS
Codec ID                                 : S_HDMV/PGS
Codec ID/Info                            : Picture based subtitle format used on BDs/HD-DVDs
Duration                                 : 1 h 52 min
Bit rate                                 : 18.3 kb/s
Count of elements                        : 2200
Stream size                              : 14.8 MiB (0%)
Language                                 : Hindi
Default                                  : No
Forced                                   : No

Text #7
ID                                       : 10
Format                                   : PGS
Codec ID                                 : S_HDMV/PGS
Codec ID/Info                            : Picture based subtitle format used on BDs/HD-DVDs
Duration                                 : 1 h 52 min
Bit rate                                 : 21.6 kb/s
Count of elements                        : 2204
Stream size                              : 17.4 MiB (0%)
Language                                 : Latvian
Default                                  : No
Forced                                   : No

Text #8
ID                                       : 11
Format                                   : PGS
Codec ID                                 : S_HDMV/PGS
Codec ID/Info                            : Picture based subtitle format used on BDs/HD-DVDs
Duration                                 : 1 h 52 min
Bit rate                                 : 20.4 kb/s
Count of elements                        : 2200
Stream size                              : 16.5 MiB (0%)
Language                                 : Lithuanian
Default                                  : No
Forced                                   : No

Text #9
ID                                       : 12
Format                                   : PGS
Codec ID                                 : S_HDMV/PGS
Codec ID/Info                            : Picture based subtitle format used on BDs/HD-DVDs
Duration                                 : 1 h 52 min
Bit rate                                 : 20.5 kb/s
Count of elements                        : 2202
Stream size                              : 16.6 MiB (0%)
Language                                 : Norwegian
Default                                  : No
Forced                                   : No

Text #10
ID                                       : 13
Format                                   : PGS
Codec ID                                 : S_HDMV/PGS
Codec ID/Info                            : Picture based subtitle format used on BDs/HD-DVDs
Duration                                 : 1 h 52 min
Bit rate                                 : 21.5 kb/s
Count of elements                        : 2200
Stream size                              : 17.3 MiB (0%)
Language                                 : Russian
Default                                  : No
Forced                                   : No

Text #11
ID                                       : 14
Format                                   : PGS
Codec ID                                 : S_HDMV/PGS
Codec ID/Info                            : Picture based subtitle format used on BDs/HD-DVDs
Duration                                 : 1 h 52 min
Bit rate                                 : 21.1 kb/s
Count of elements                        : 2202
Stream size                              : 17.1 MiB (0%)
Language                                 : Swedish
Default                                  : No
Forced                                   : No

Text #12
ID                                       : 15
Format                                   : PGS
Codec ID                                 : S_HDMV/PGS
Codec ID/Info                            : Picture based subtitle format used on BDs/HD-DVDs
Duration                                 : 1 h 52 min
Bit rate                                 : 28.8 kb/s
Count of elements                        : 2198
Stream size                              : 23.2 MiB (0%)
Language                                 : Tamil
Default                                  : No
Forced                                   : No

Text #13
ID                                       : 16
Format                                   : PGS
Codec ID                                 : S_HDMV/PGS
Codec ID/Info                            : Picture based subtitle format used on BDs/HD-DVDs
Duration                                 : 1 h 52 min
Bit rate                                 : 21.9 kb/s
Count of elements                        : 2198
Stream size                              : 17.7 MiB (0%)
Language                                 : Telugu
Default                                  : No
Forced                                   : No

Text #14
ID                                       : 17
Format                                   : PGS
Codec ID                                 : S_HDMV/PGS
Codec ID/Info                            : Picture based subtitle format used on BDs/HD-DVDs
Duration                                 : 1 h 52 min
Bit rate                                 : 21.7 kb/s
Count of elements                        : 2206
Stream size                              : 17.5 MiB (0%)
Language                                 : Ukrainian
Default                                  : No
Forced                                   : No

Text #15
ID                                       : 18
Format                                   : PGS
Codec ID                                 : S_HDMV/PGS
Codec ID/Info                            : Picture based subtitle format used on BDs/HD-DVDs
Duration                                 : 1 h 53 min
Bit rate                                 : 75.5 kb/s
Count of elements                        : 4364
Stream size                              : 61.4 MiB (0%)
Title                                    : Commentary by procuder Huch Parker and writer/director Simon Kinberg (SDH)
Language                                 : English
Default                                  : No
Forced                                   : No

Text #16
ID                                       : 19
Format                                   : PGS
Codec ID                                 : S_HDMV/PGS
Codec ID/Info                            : Picture based subtitle format used on BDs/HD-DVDs
Duration                                 : 1 h 53 min
Bit rate                                 : 64.3 kb/s
Count of elements                        : 4348
Stream size                              : 52.3 MiB (0%)
Title                                    : Commentary by procuder Huch Parker and writer/director Simon Kinberg
Language                                 : Danish
Default                                  : No
Forced                                   : No

Text #17
ID                                       : 20
Format                                   : PGS
Codec ID                                 : S_HDMV/PGS
Codec ID/Info                            : Picture based subtitle format used on BDs/HD-DVDs
Duration                                 : 1 h 53 min
Bit rate                                 : 62.5 kb/s
Count of elements                        : 4342
Stream size                              : 50.8 MiB (0%)
Title                                    : Commentary by procuder Huch Parker and writer/director Simon Kinberg
Language                                 : Finnish
Default                                  : No
Forced                                   : No

Text #18
ID                                       : 21
Format                                   : PGS
Codec ID                                 : S_HDMV/PGS
Codec ID/Info                            : Picture based subtitle format used on BDs/HD-DVDs
Duration                                 : 1 h 53 min
Bit rate                                 : 65.4 kb/s
Count of elements                        : 4348
Stream size                              : 53.2 MiB (0%)
Title                                    : Commentary by procuder Huch Parker and writer/director Simon Kinberg
Language                                 : Norwegian
Default                                  : No
Forced                                   : No

Text #19
ID                                       : 22
Format                                   : PGS
Codec ID                                 : S_HDMV/PGS
Codec ID/Info                            : Picture based subtitle format used on BDs/HD-DVDs
Duration                                 : 1 h 53 min
Bit rate                                 : 62.4 kb/s
Count of elements                        : 4334
Stream size                              : 50.7 MiB (0%)
Title                                    : Commentary by procuder Huch Parker and writer/director Simon Kinberg
Language                                 : Russian
Default                                  : No
Forced                                   : No

Text #20
ID                                       : 23
Format                                   : PGS
Codec ID                                 : S_HDMV/PGS
Codec ID/Info                            : Picture based subtitle format used on BDs/HD-DVDs
Duration                                 : 1 h 53 min
Bit rate                                 : 76.4 kb/s
Count of elements                        : 4348
Stream size                              : 62.2 MiB (0%)
Title                                    : Commentary by procuder Huch Parker and writer/director Simon Kinberg
Language                                 : Swedish
Default                                  : No
Forced                                   : No

Menu
00:00:00.000                             : en:Chapter 1
00:03:28.875                             : en:Chapter 2
00:07:34.621                             : en:Chapter 3
00:11:42.201                             : en:Chapter 4
00:15:44.110                             : en:Chapter 5
00:18:37.408                             : en:Chapter 6
00:25:24.481                             : en:Chapter 7
00:31:40.357                             : en:Chapter 8
00:34:19.307                             : en:Chapter 9
00:40:07.447                             : en:Chapter 10
00:44:36.090                             : en:Chapter 11
00:49:07.778                             : en:Chapter 12
00:55:38.168                             : en:Chapter 13
00:58:57.409                             : en:Chapter 14
01:02:57.190                             : en:Chapter 15
01:10:40.111                             : en:Chapter 16
01:13:42.418                             : en:Chapter 17
01:19:33.477                             : en:Chapter 18
01:22:35.701                             : en:Chapter 19
01:25:49.061                             : en:Chapter 20
01:30:38.350                             : en:Chapter 21
01:32:48.188                             : en:Chapter 22
01:37:59.624                             : en:Chapter 23
01:45:01.045                             : en:Chapter 24

We have no issue with individuals posting or re-uploading our torrents on a platform we aren't on. However, if this is something you'd like to do, please do so in a 'as-is' format. We ask that you do not create a new torrent, include all descriptions you see above including the SEV logo, tags, notes and screenshots. If you'd like to become a permanent poster on a website we don't post to, feel free to get in contact with a Sublime Encoded Video  member.


We are recruiting/training new members for SEV & seedbox providers as well as people to help out with subtitles.
As you already know, we deliver quality, so you know the standard.
If you're interested, feel free to contact any of the team members.
Category:Movies > HEVC/x265
Lang:English  English
Total Size:10.40 GB
Info Hash:f7c75317e79d205858b372404755d073d1e3861e
Added By:D0ct0rLew
Date Added:12-09-2019 03:34:52

  

Files

File List: 
 File Size
Dark Phoenix 2019 1080p BluRay BDrip DTS-HD MA 7.1 D0ct0rLew[SEV].mkv10.40 GB



Loading...
Comments

There are currently no comments. Be the first one to write something !

Disclaimer: None of the files shown here are actually hosted or transmitted by this server. The links are provided solely by this site's users. The site moderation is also a service provided by the site's users. The administrator of this site (ettv.be) cannot be held responsible for what its users post, or any other actions of its users. You may not use this site to distribute or download any material when you do not have the legal rights to do so. It is your own responsibility to adhere to these terms.