avengers endgame 2019 hustlers 2019 ettv ethd Pandora s01e10 angel has fallen 2019 ITA  peaky blinders s05e05 once upon a time in hollywood 2019 rambo last blood 2019 the secret life of pets 2 2019 greenleaf s04e03 spiderman far from home marvel week 2.0 (2018) dream girl  47 meters down uncaged 2019 joker 2019 spiderman etrg spider man far from home ready or not 2019 fast furious presents hobbs shaw 2019 kabir singh titans etmovies Titans s02e02 childs play 2019 ad astra 2019 mr mercedes s03e02 toy story 4 survivor Bachelor in Paradise fear the walking dead s05e14 Mr Mercedes mayans the lion king 2019 0 Anna  toy story 4 2019 evo ballers s05e04 anna 2019 dark phoenix 2019 anal mayans mc s02e03 xxx 萝莉 pandora godzilla king of the monsters 2019 scary stories to tell in the dark 2019 proper john wick chapter 3 – parabellum 2019 aladdin 2019 men in black international 2019 love hip hop hollywood s06e07 ma 2019 HINDI far from home good boys 2019 bachelor in paradise s06e13 Peaky blinders spider man far from home 2019 it chapter two 2019 Crawl 2019 yesterday 2019 yts wwe 幼女 ddr power s06e04 
Warning! Use a VPN When Downloading Torrents!
Your IP Address is 3.227.233.55. Location is United States
Your Internet Provider is tracking your torrent activity! Hide your IP ADDRESS with a VPN!
We strongly recommend using TrustZone to anonymize your torrenting. 30 Day Money Back Guarantee!
Try it Now!
ETTV Recommended TV Shows
Pearson.S01E10.WEBRip.x264-TBS[ettv] torrent
Suits.S09E09.HDTV.x264-aAF[ettv] torrent
Deep.Water.UK.S01E06.HDTV.x264-RiVER[ettv] torrent
American.Horror.Story.S09E01.HDTV.x264-SVA[ettv] torrent

ETTV Recommended SD
Spider-Man.Far.from.Home.2019.BRRip.XViD.AC3-ETRG torrent
Deadtectives.2019.HDRip.XviD.AC3-EVO[EtMovies] torrent
Fast.and.Furious.Presents.Hobbs.and.Shaw.2019..HC.HDRip.x264.AC3-ETRG torrent
The.First.King.2019.BDRip.XviD.AC3-EVO torrent

ETTV Recommended HD
Spider Man Far from Home 2019 BluRay 1080p DTS-HD MA 7.1 x264-MTeam[EtHD] torrent
No.Surrender.2018.MULTi.1080p.BluRay.x264-THREESOME[EtHD] torrent
The.Tracker.2019.1080p.BluRay.x264-SADPANDA[EtHD] torrent
Fast.and.Furious.Presents.Hobbs.and.Shaw.2019.1080p.HC.HDRip.X264.AC3-EVO[EtHD] torrent

ETTV Recommended UHD
Resident Evil Vendetta 2017.MULTi.UHD.Blu-ray.2160p.HDR.Atmos.7.1.HEVC-DDR torrent
Rough Night.2017.MULTi.UHD.Blu-ray.2160p.HDR.Atmos.7.1.HEVC-DDR torrent
Spider-Man.Far From Home 2019.UHD.2160p.WEB-Rip..HDR.DDP.5.1-DDR[EtHD] torrent
Annabelle.Comes.Home.2019.MULTi.UHD.2160p.HDR.WEB-Rip.DDP.5.1.HEVC-DDR[EtHD] torrent

ETTV Recommended Cam
It Chapter Two 2019.HDCAM.x264.AC3-ETRG torrent
Downton Abbey 2019 720p HDCAM-GETB8 torrent
Hustlers 2019 HDCAM x264 AC3-ETRG torrent
Rambo Last Blood 2019 720p NEW HDCAM-GETB8 torrent

ETTV Recommended Foreign
Back Street Girls Gokudols The Movie 2019 720p BluRay x264 Ganool torrent
Kabir.Singh.2019.Hindi.HDRip..x264.AC3-ETRG torrent
Fast & Furious - Hobbs & Shaw (2019)[720p HC HDRip - HQ Line Auds - [Tamil + Telugu + Hin + Eng] - x264 - 1GB] torrent
Long Shot (2019) BRRip 720p [Hindi-Dub] x264 1XBET - KatmovieHD torrent


Download Torrent "Partition 2007 x264 720p Esub HD Dual Audio English Hindi GOPISAHI"

IMDB Details
Description:

During the turmoil and violence of Partition, a Sikh ex-soldier, haunted by war, offers shelter to a young Muslim woman who has been separated from her family.

Genre:

Drama, Romance

Download Torrent (Magnet)
Download Torrent (File)
Seeds: 287
Leechers: 140
Completed: 934 
Last Checked: 12-09-2019 03:56:11


Loading...
Details
Title:Partition 2007 x264 720p Esub HD Dual Audio English Hindi GOPISAHI
Description:
https://www.gopisahi.xyz/



Partition 2007 x264 720p Esub HD Dual Audio English Hindi GOPISAHI

Format                         : Matroska
Format version                 : Version 4
File size                      : 863 MiB
Duration                       : 1 h 46 min
Overall bit rate mode          : Variable
Overall bit rate               : 1 132 kb/s
Movie name                     : Partition 2007 GOPISAHI

Video
Format                         : AVC
Format/Info                    : Advanced Video Codec
Format profile                 : [email protected]
Format settings                : CABAC / 1 Ref Frames
Codec ID                       : V_MPEG4/ISO/AVC
Duration                       : 1 h 46 min
Bit rate mode                  : Variable
Bit rate                       : 937 kb/s
Maximum bit rate               : 2 000 kb/s
Width                          : 1 280 pixels
Height                         : 720 pixels
Display aspect ratio           : 16:9
Frame rate mode                : Constant
Frame rate                     : 25.000 FPS
Color space                    : YUV
Chroma subsampling             : 4:2:0
Bit depth                      : 8 bits
Scan type                      : Progressive
Bits/(Pixel*Frame)             : 0.041
Stream size                    : 714 MiB (83%)
Title                          : GOPISAHI
Language                       : English

Audio #1
Format                         : AAC LC
Duration                       : 1 h 46 min
Bit rate                       : 96.0 kb/s
Channel(s)                     : 2 channels
Channel layout                 : L R
Sampling rate                  : 48.0 kHz
Frame rate                     : 46.875 FPS (1024 SPF)
Compression mode               : Lossy
Delay relative to video        : -33 ms
Stream size                    : 73.2 MiB (8%)
Title                          : GOPISAHI
Language                       : Hindi
Default                        : Yes

Audio #2
Format                         : AAC LC
Duration                       : 1 h 46 min
Bit rate                       : 96.0 kb/s
Channel(s)                     : 2 channels
Channel layout                 : L R
Sampling rate                  : 48.0 kHz
Frame rate                     : 46.875 FPS (1024 SPF)
Compression mode               : Lossy
Delay relative to video        : 9 s 767 ms
Stream size                    : 73.4 MiB (8%)
Title                          : GOPISAHI
Language                       : English






Category:Movies > Dubs/Dual Audio
Lang:Hindi  Hindi
Total Size:863 MB
Info Hash:4fc6a7ee55e7ec15800050a8c52713670e240f68
Added By:GOPISAHI
Date Added:12-09-2019 03:56:08

Files

File List: 
 File Size
Partition 2007 x264 720p Esub HD Dual Audio English Hindi GOPISAHI.mkv863 MB



Loading...
Comments

There are currently no comments. Be the first one to write something !

Disclaimer: None of the files shown here are actually hosted or transmitted by this server. The links are provided solely by this site's users. The site moderation is also a service provided by the site's users. The administrator of this site (ettv.be) cannot be held responsible for what its users post, or any other actions of its users. You may not use this site to distribute or download any material when you do not have the legal rights to do so. It is your own responsibility to adhere to these terms.