Siren S03E10 Birds of Prey (and the Fantabulous Emancipation of One Harley Quinn) 2020 Capone 2020 in the dark hindi Americandad the flash  ETTV rick and morty ethd Jersey Shore Family Vacation S03E26 The Challenge S35E09 yts rick and morty s04e09 WHAT WE DO IN THE SHADOWS the 100 s07e02 Bad Boys for Life 2020 Harley Quinn Gangs of London S01E06 agents of shield defending jacob nascar Blindspot S05E03 AmericasGotTalentS15E01 westworld seal team Space Force S01E01 the 100 supergirl Defending Jacob S01E08 Brazzers Best Of Brazzers 2160p the walking dead Scoob! 2020 hindi 2020 Jeffrey Epstein Filthy Rich S01E01 Marvels Agents of S H I E L D s07e01 the good fight stargirl Survive the Night 2020 rq.mp4 Blindspot space force What We Do in the Shadows s02e08 ddr ita  siren The Wrong Missy 2020 evo marvel week BarkskinsS01E01 snowpiercer stargirl s01e02 Yts legends of tomorrow Outlander billions etmovies Marvels Agents of S.H.I.E.L.D. S07E01 extraction 2020 etrg Locke  minx XXX BadBoysforLife2020 killing eve Transplant WWE  dc week Rick.and.Morty.S04E02.720p.WEBRip.x264-TBS[TGx] 
ETTV Recommended TV Shows
Man.With.a.Plan.S04E11.HDTV.x264-SVA[ettv] torrent
Siren.2018.S03E10.WEB.H264-BTX[ettv] torrent
In.the.Dark.2019.S02E07.HDTV.x264-SVA.ETRG torrent
Blindspot.S05E03.HDTV.x264-SVA.ETRG torrent

ETTV Recommended SD
The.Hunt.2020.BDRip.XviD.AC3-EVO torrent
The.Vast.Of.Night.2020.HDRip.XviD.AC3-EVO torrent
A.Good.Woman.Is.Hard.To.Find.2019.BRRip.XviD.AC3-EVO torrent
Gabriels Inferno.2020.HDRip.XviD.AC3-EVO torrent

ETTV Recommended HD
For.We.Are.Many.2019.1080p.WEBRip.X264.DD.2.0-EVO[EtHD] torrent
Debt.Collectors.2020.1080p.WEBRip.X264.DD.5.1-EVO[EtHD] torrent
Code.of.Thieves.2020.1080p.AMZN.WEB-DL.DDP2.0.H.264-CMRG[EtHD] torrent
Gabriels.Inferno.2020.1080p.WEB-DL.X264.AC3-EVO[EtHD] torrent

ETTV Recommended UHD
Dolittle.2020.HDR10Plus.2160p.UHD.BluRay.x265.iNTERNAL-JustWatch.ETRG torrent
Snitch 2013.MULTi.UHD.Blu-ray.2160p.HDR.Atmos.7.1.HEVC-DDR.mkv torrent
Superman.Red.Son.2020.UHD.BluRay.2160p.HDR.DTS-HDMA.5.1.HEVC-DDR.mkv torrent
The.Vast.of.Night.2019.UHD.2160p.HDR.WebRip.DDP.5.1.HEVC-DDR.mkv torrent

ETTV Recommended Cam
The Hunt 2020 HDCAM x264 AC3-ETRG torrent
The Burnt Orange Heresy 2020 720p HDCAM-C1NEM4 torrent

ETTV Recommended Foreign
Frozen.II.2019.ESTONiAN.1080p.WEBRip.x264-EMX[EtHD] torrent
Golkeri.2020.720p.AMZN.WEB-DL.DD+5.1.x264-Telly torrent
Stinger (2005) 720p BluRay x264 [Dual Audio] [Hindi DD 2.0 - English 5.1] Exclusive By -=!Dr.STAR!=- torrent
Lady Driver (2020) HDRip 720p [Hindi-Dub] Dual-Audio x264 - 1XCinema torrent

AD_BLOCK


Download Torrent "Dream Girl 2019 Hindi 720p Pre-DVD Rip x264 AAC { TaRa }.mkv"

IMDB Details
Description:

Rom-com Movie, directed by Raaj Shaanilyaa, stars Ayushmann Khurrana who plays a 'dream girl'. In every love story, there is always one trying to win the heart of the other, who could be the 'dream girl'.

Genre:

Comedy, Romance

Download Torrent (Magnet)
Download Torrent (File)
Seeds: 3,645
Leechers: 2,057
Completed: 16,365 
Last Checked: 17-09-2019 21:10:22


Details
Title:Dream Girl 2019 Hindi 720p Pre-DVD Rip x264 AAC { TaRa }.mkv
Description:

Dream Girl 2019 Hindi 720p Pre-DVD Rip x264 AAC { TaRa }.mkv


===================================================================
General
Complete name               : Dream Girl 2019 Hindi 720p Pre-DVD Rip x264 AAC { TaRa }.mkv
Format                      : Matroska
Format version              : Version 4
File size                   : 1.20 GiB
Duration                    : 2 h 2 min
Overall bit rate            : 1 403 kb/s
===================================================================
Video
ID                          : 1
Format                      : AVC
Format/Info                 : Advanced Video Codec
Format profile              : [email protected]
Format settings             : CABAC / 4 Ref Frames
Format settings, CABAC      : Yes
Format settings, Reference  : 4 frames
Codec ID                    : V_MPEG4/ISO/AVC
Duration                    : 2 h 2 min
Bit rate                    : 1 284 kb/s
Width                       : 1 280 pixels
Height                      : 544 pixels
Display aspect ratio        : 2.35:1
Frame rate mode             : Constant
Frame rate                  : 29.970 (30000/1001) FPS
Color space                 : YUV
Chroma subsampling          : 4:2:0
Bit depth                   : 8 bits
Scan type                   : Progressive
Bits/(Pixel*Frame)          : 0.062
Stream size                 : 1.11 GiB (92%)
Title                       : .....::::: TaRa :::::.....
Language                    : Hindi
Default                     : Yes
Forced                      : No
===================================================================
Audio
ID                          : 2
Format                      : AAC LC
Format/Info                 : Advanced Audio Codec Low Complexity
Codec ID                    : A_AAC-2
Duration                    : 2 h 2 min
Bit rate                    : 109 kb/s
Channel(s)                  : 2 channels
Channel layout              : L R
Sampling rate               : 44.1 kHz
Frame rate                  : 43.066 FPS (1024 SPF)
Compression mode            : Lossy
Delay relative to video     : -10 ms
Stream size                 : 95.5 MiB (8%)
Title                       : .....::::: TaRa :::::.....
Language                    : Hindi
Default                     : Yes
Forced                      : No
===================================================================




























Category:Movies > Bollywood
Lang:Hindi  Hindi
Total Size:1.20 GB
Info Hash:e145c6754f83ca68a3e3299e78849a68305936f1
Added By:Sk3yTara
Date Added:17-09-2019 21:10:19

  

Files

File List: 
 File Size
70662792.jpg379.18 kB
Dream Girl 2019 Hindi 720p Pre-DVD Rip x264 AAC { TaRa }.mkv1.20 GB
MV5BNmUyMzU3Yjgt[email protected]._V1_QL50_SY1000_SX692_AL_.jpg114.59 kB
Torrent TaRa Digital Team PC Info.nfo6.53 kB
Torrent TaRa Digital Team.txt702.00 B



Comments

There are currently no comments. Be the first one to write something !

Disclaimer: None of the files shown here are actually hosted or transmitted by this server. The links are provided solely by this site's users. The site moderation is also a service provided by the site's users. The administrator of this site (ettv.be) cannot be held responsible for what its users post, or any other actions of its users. You may not use this site to distribute or download any material when you do not have the legal rights to do so. It is your own responsibility to adhere to these terms.