Scoob! 2020 the 100 Blue Bloods s00e02 stargirl s01e03 yts The Wrong Missy 2020 BILLIONS 2160p Killing Eve S03E08 stargirl Almost Paradise S01E10 etrg defending jacob the 100 s07e02 space force birds of prey (and the fantabulous emancipation of one harley quinn) 2020 Penny Dreadful City of Angels S01E06 Brazzers Best Of Brazzers killing eve i know this much is true ethd Hindi 2020 90 Day Fiance Before The 90 Days s04e15 Space Force s01e02 Xxx arrow español ettv Legends of Tomorrow Harley quinn rq.mp4 penny dreadful Rick and Morty S04E09 Space Force S01E03 Snowpiercer S01E03 minx Last Week Tonight with John Oliver S07E13 Hightown S01E03 Last Week Tonight ddr american dad Wwe outlander Space Force s01e04 rick and morty seal team Rick and Morty S04E10 westworld dc week Barkskins S01E03 hindi Billions S05E05 chicago fire ufc devils Locke  Survive the Night 2020 blindspot almost paradise evo Snowpiercer  Defending Jacob S01E08 Marvels Agents of S.H.I.E.L.D. S07E01 Law and Order SVU Space Force s01e01 The Hunt 2020 etmovies ITA big bang theory español 
ETTV Recommended TV Shows
Snowpiercer.S01E03.WEBRip.x264-BTX[ettv] torrent
Stargirl.S01E03.1080p.WEB.H264-BTX[ettv] torrent
American.Dad.S16E08.HDTV.x264-SVA[ettv] torrent
Roswell.New.Mexico.S02E11.HDTV.x264-SVA[ettv] torrent

ETTV Recommended SD
A.Clear.Shot.2020.HDRip.XviD.AC3-EVO torrent
The.Will.2020.HDRip.XviD.AC3-EVO torrent
Hang.Time.2019.HDRip.XviD.AC3-EVO torrent
Bernie.The.Dolphin.2.2019.BDRip.XviD.AC3-EVO torrent

ETTV Recommended HD
The.Will.2020.1080p.AMZN.WEBRip.X264.DD.2.0-EVO[EtHD] torrent
No.Apology.2020.1080p.WEBRip.X264.DD.5.1-EVO[EtHD] torrent
Hang.Time.2019.1080p.WEB-DL.H264.AC3-EVO[EtHD] torrent
A.Clear.Shot.2019.AMZN.WEB-DL.DDP5.1.H.264-CMRG[EtHD] torrent

ETTV Recommended UHD
First.reformed.2017.UHD.2160p.HDR.WebRip.DDP.5.1.HEVC-DDR.mkv torrent
Rush.2013.MULTi.UHD.2160p.HDR.DTS-HDMA.5.1.HEVC-DDR.mkv torrent
Thor.Ragnarok.2017.BDRip.2160P.UHD.HDR.Eng.TrueHD.ETRG torrent
Air.Force.One.1997.BDRip.2160.UHD.HDR.Eng.TrueHD.ETRG torrent

ETTV Recommended Cam
The Hunt 2020 HDCAM x264 AC3-ETRG torrent
The Burnt Orange Heresy 2020 720p HDCAM-C1NEM4 torrent

ETTV Recommended Foreign
Chippa.2018.1080p.NF.WEB-DL.DDP5.1.x264-Telly torrent
Chacha.Chaudhary.S01.2019.1080p.DSNP+.WEB-DL.AAC.2.0.x264-Telly torrent
Naan Mahaan Alla.2010.Blu-ray.1080p.DTS.5.1.HEVC.[fixed]-DDR.mkv torrent
Ne.Zha.2019.MULTi.UHD.BluRay.2160p.HEVC.Atmos.TrueHD.7.1-DDR.mkv torrent

AD_BLOCK


Download Torrent "Rambo (2008) EXTENDED (1080p BluRay x265 HEVC 10bit AAC 7.1 Joy) [UTR]"

IMDB Details
Description:

In Thailand, John Rambo joins a group of mercenaries to venture into war-torn Burma, and rescue a group of Christian aid workers who were kidnapped by the ruthless local infantry unit.

Genre:

Action, Thriller

Download Torrent (Magnet)
Download Torrent (File)
Seeds: 2,678
Leechers: 858
Completed: 9,896 
Last Checked: 09-10-2019 14:06:32


Details
Title:Rambo (2008) EXTENDED (1080p BluRay x265 HEVC 10bit AAC 7.1 Joy) [UTR]
Description:



Media Information
General
Format                                   : Matroska
Format version                           : Version 4 / Version 2
File size                                : 1.31 GiB
Duration                                 : 1 h 39 min
Overall bit rate                         : 1 884 kb/s
Movie name                               : Rambo 2008 EXTENDED  (1080p x265 10bit S81 Joy) [UTR]
Encoded date                             : UTC 2019-10-08 07:13:15
Writing application                      : mkvmerge v32.0.0 ('Astral Progressions') 64-bit
Writing library                          : libebml v1.3.7 + libmatroska v1.5.0
Cover                                    : Yes
Attachments                              : cover.jpg
Writing frontend                         : StaxRip v2.0.2.0, Encoded by JoyBell

Video
ID                                       : 1
Format                                   : HEVC
Format/Info                              : High Efficiency Video Coding
Format profile                           : Main [email protected]@Main
Codec ID                                 : V_MPEGH/ISO/HEVC
Duration                                 : 1 h 39 min
Bit rate                                 : 1 500 kb/s
Width                                    : 1 920 pixels
Height                                   : 816 pixels
Display aspect ratio                     : 2.35:1
Frame rate mode                          : Constant
Frame rate                               : 23.976 (24000/1001) FPS
Color space                              : YUV
Chroma subsampling                       : 4:2:0
Bit depth                                : 10 bits
Bits/(Pixel*Frame)                       : 0.040
Stream size                              : 1.04 GiB (80%)
Writing library                          : x265 3.0_Au+24-4217e691387c:[Windows][GCC 9.1.1][64 bit] 10bit
Encoding settings                        : rc=abr / bitrate=1500 / qcomp=0.60 / qpstep=4 / stats-write=0 / stats-read=2 / cplxblur=20.0 / qblur=0.5 / qpmax=69 / qpmin=0 / no-lossless / no-cu-lossless / no-hevc-aq / no-aq-motion / aq-mode=2 / aq-strength=0.80 / cbqpoffs=0 / crqpoffs=0 / ipratio=1.40 / pbratio=1.30 / psy-rd=0.00 / psy-rdoq=1.00 / deblock=0:0 / ref=4 / limit-refs=3 / limit-modes / bframes=8 / b-adapt=2 / bframe-bias=40 / b-pyramid / no-b-intra / weightp / no-weightb / keyint=250 / min-keyint=23 / rc-lookahead=80 / gop-lookahead=0 / scenecut=40 / scenecut-bias=0.05 / ctu=64 / min-cu-size=8 / me=3 / subme=5 / merange=57 / rd=4 / no-rd-refine / ssim-rd / dynamic-rd=0.00 / rdoq-level=2 / rdpenalty=0 / cutree / sao / limit-sao / no-sao-non-deblock / rect / no-amp / open-gop / max-tu-size=32 / tu-inter-depth=1 / tu-intra-depth=1 / limit-tu=0 / qg-size=32 / wpp / no-pmode / no-pme / no-psnr / ssim / no-tskip / constrained-intra / strong-intra-smoothing / max-merge=5 / nr-intra=0 / nr-inter=0 / input-csp=1 / input-res=1920x816 / interlace=0 / total-frames=142825 / level-idc=0 / high-tier=1cpuid=1111039 / frame-threads=3 / numa-pools=12 / log-level=2 / uhd-bd=0 / lookahead-slices=4 / radl=0 / no-splice / no-intra-refresh / signhide / temporal-mvp / no-analyze-src-pics / early-skip / rskip / no-fast-intra / no-tskip-fast / splitrd-skip / zone-count=0 / no-strict-cbr / no-rc-grain / no-const-vbv / no-allow-non-conformance / no-repeat-headers / annexb / no-aud / no-hrd / info / hash=0 / no-temporal-layers / sar=0 / overscan=0 / videoformat=5 / range=0 / colorprim=2 / transfer=2 / colormatrix=2 / chromaloc=0 / display-window=0 / max-cll=0,0 / min-luma=0 / max-luma=1023 / log2-max-poc-lsb=8 / vui-timing-info / vui-hrd-info / slices=1 / no-opt-qp-pps / no-opt-ref-list-length-pps / multi-pass-opt-rps / no-opt-cu-delta-qp / no-hdr / no-hdr-opt / no-dhdr10-opt / no-idr-recovery-sei / analysis-reuse-level=10 / scale-factor=0 / refine-intra=0 / refine-inter=0 / refine-mv=0 / refine-ctu-distortion=0 / ctu-info=0 / no-lowpass-dct / refine-analysis-type=0 / copy-pic=1 / max-ausize-factor=1.0 / no-dynamic-refine / no-single-sei / no-svt / qp-adaptation-range=1.00
Default                                  : Yes
Forced                                   : No

Audio
ID                                       : 2
Format                                   : AAC
Format/Info                              : Advanced Audio Codec
Format profile                           : LC
Codec ID                                 : A_AAC
Duration                                 : 1 h 39 min
Bit rate                                 : 369 kb/s
Channel(s)                               : 8 channels
Channel positions                        : Front: L C R, Side: L R, Back: L R, LFE
Sampling rate                            : 48.0 kHz
Frame rate                               : 46.875 FPS (1024 spf)
Compression mode                         : Lossy
Delay relative to video                  : 9 ms
Stream size                              : 262 MiB (20%)
Language                                 : English
Default                                  : No
Forced                                   : No

Subtitle #1
ID                                       : 3
Format                                   : PGS
Muxing mode                              : zlib
Codec ID                                 : S_HDMV/PGS
Codec ID/Info                            : Picture based subtitle format used on BDs/HD-DVDs
Duration                                 : 1 h 25 min
Bit rate                                 : 19.1 kb/s
Count of elements                        : 1124
Stream size                              : 11.7 MiB (1%)
Language                                 : English
Default                                  : No
Forced                                   : No

Subtitle #2
ID                                       : 4
Format                                   : UTF-8
Codec ID                                 : S_TEXT/UTF8
Codec ID/Info                            : UTF-8 Plain Text
Duration                                 : 1 h 25 min
Bit rate                                 : 29 b/s
Count of elements                        : 562
Stream size                              : 18.3 KiB (0%)
Language                                 : English
Default                                  : No
Forced                                   : No

Subtitle #3
ID                                       : 5
Format                                   : VobSub
Muxing mode                              : zlib
Codec ID                                 : S_VOBSUB
Codec ID/Info                            : Picture based subtitle format used on DVDs
Duration                                 : 1 h 25 min
Bit rate                                 : 6 132 b/s
Count of elements                        : 714
Stream size                              : 3.75 MiB (0%)
Language                                 : English
Default                                  : No
Forced                                   : No

Subtitle #4
ID                                       : 6
Format                                   : VobSub
Muxing mode                              : zlib
Codec ID                                 : S_VOBSUB
Codec ID/Info                            : Picture based subtitle format used on DVDs
Duration                                 : 1 h 25 min
Bit rate                                 : 4 953 b/s
Count of elements                        : 661
Stream size                              : 3.03 MiB (0%)
Language                                 : Spanish
Default                                  : No
Forced                                   : No

Subtitle #5
ID                                       : 7
Format                                   : UTF-8
Codec ID                                 : S_TEXT/UTF8
Codec ID/Info                            : UTF-8 Plain Text
Duration                                 : 1 h 19 min
Bit rate                                 : 39 b/s
Count of elements                        : 596
Stream size                              : 22.8 KiB (0%)
Language                                 : Arabic
Default                                  : No
Forced                                   : No

Subtitle #6
ID                                       : 8
Format                                   : UTF-8
Codec ID                                 : S_TEXT/UTF8
Codec ID/Info                            : UTF-8 Plain Text
Duration                                 : 1 h 16 min
Bit rate                                 : 21 b/s
Count of elements                        : 459
Stream size                              : 11.9 KiB (0%)
Language                                 : Chinese
Default                                  : No
Forced                                   : No

Subtitle #7
ID                                       : 9
Format                                   : UTF-8
Codec ID                                 : S_TEXT/UTF8
Codec ID/Info                            : UTF-8 Plain Text
Duration                                 : 1 h 20 min
Bit rate                                 : 27 b/s
Count of elements                        : 491
Stream size                              : 16.3 KiB (0%)
Language                                 : Portuguese
Default                                  : No
Forced                                   : No

Subtitle #8
ID                                       : 10
Format                                   : UTF-8
Codec ID                                 : S_TEXT/UTF8
Codec ID/Info                            : UTF-8 Plain Text
Duration                                 : 1 h 17 min
Bit rate                                 : 25 b/s
Count of elements                        : 368
Stream size                              : 14.4 KiB (0%)
Language                                 : Danish
Default                                  : No
Forced                                   : No

Subtitle #9
ID                                       : 11
Format                                   : UTF-8
Codec ID                                 : S_TEXT/UTF8
Codec ID/Info                            : UTF-8 Plain Text
Duration                                 : 1 h 13 min
Bit rate                                 : 28 b/s
Count of elements                        : 414
Stream size                              : 15.6 KiB (0%)
Language                                 : Dutch
Default                                  : No
Forced                                   : No

Subtitle #10
ID                                       : 12
Format                                   : UTF-8
Codec ID                                 : S_TEXT/UTF8
Codec ID/Info                            : UTF-8 Plain Text
Duration                                 : 1 h 28 min
Bit rate                                 : 47 b/s
Count of elements                        : 621
Stream size                              : 30.9 KiB (0%)
Language                                 : Persian
Default                                  : No
Forced                                   : No

Subtitle #11
ID                                       : 13
Format                                   : UTF-8
Codec ID                                 : S_TEXT/UTF8
Codec ID/Info                            : UTF-8 Plain Text
Duration                                 : 1 h 20 min
Bit rate                                 : 26 b/s
Count of elements                        : 366
Stream size                              : 15.6 KiB (0%)
Language                                 : Finnish
Default                                  : No
Forced                                   : No

Subtitle #12
ID                                       : 14
Format                                   : UTF-8
Codec ID                                 : S_TEXT/UTF8
Codec ID/Info                            : UTF-8 Plain Text
Duration                                 : 1 h 30 min
Bit rate                                 : 20 b/s
Count of elements                        : 534
Stream size                              : 13.5 KiB (0%)
Language                                 : French
Default                                  : No
Forced                                   : No

Subtitle #13
ID                                       : 15
Format                                   : UTF-8
Codec ID                                 : S_TEXT/UTF8
Codec ID/Info                            : UTF-8 Plain Text
Duration                                 : 1 h 17 min
Bit rate                                 : 34 b/s
Count of elements                        : 496
Stream size                              : 19.8 KiB (0%)
Language                                 : German
Default                                  : No
Forced                                   : No

Subtitle #14
ID                                       : 16
Format                                   : UTF-8
Codec ID                                 : S_TEXT/UTF8
Codec ID/Info                            : UTF-8 Plain Text
Duration                                 : 1 h 20 min
Bit rate                                 : 47 b/s
Count of elements                        : 477
Stream size                              : 28.1 KiB (0%)
Language                                 : Greek
Default                                  : No
Forced                                   : No

Subtitle #15
ID                                       : 17
Format                                   : UTF-8
Codec ID                                 : S_TEXT/UTF8
Codec ID/Info                            : UTF-8 Plain Text
Duration                                 : 1 h 20 min
Bit rate                                 : 35 b/s
Count of elements                        : 391
Stream size                              : 20.7 KiB (0%)
Language                                 : Hebrew
Default                                  : No
Forced                                   : No

Subtitle #16
ID                                       : 18
Format                                   : UTF-8
Codec ID                                 : S_TEXT/UTF8
Codec ID/Info                            : UTF-8 Plain Text
Duration                                 : 1 h 25 min
Bit rate                                 : 34 b/s
Count of elements                        : 600
Stream size                              : 21.4 KiB (0%)
Language                                 : Indonesian
Default                                  : No
Forced                                   : No

Subtitle #17
ID                                       : 19
Format                                   : UTF-8
Codec ID                                 : S_TEXT/UTF8
Codec ID/Info                            : UTF-8 Plain Text
Duration                                 : 1 h 25 min
Bit rate                                 : 38 b/s
Count of elements                        : 531
Stream size                              : 23.7 KiB (0%)
Language                                 : Vietnamese
Default                                  : No
Forced                                   : No

Menu
00:00:00.000                             : en:Chapter 01
00:06:04.573                             : en:Chapter 02
00:11:33.651                             : en:Chapter 03
00:22:41.735                             : en:Chapter 04
00:28:31.376                             : en:Chapter 05
00:33:17.621                             : en:Chapter 06
00:42:32.216                             : en:Chapter 07
00:47:26.135                             : en:Chapter 08
00:52:06.999                             : en:Chapter 09
00:59:18.013                             : en:Chapter 10
01:03:30.849                             : en:Chapter 11
01:08:03.246                             : en:Chapter 12
01:13:43.461                             : en:Chapter 13
01:19:02.529                             : en:Chapter 14
01:24:37.239                             : en:Chapter 15
01:27:17.232                             : en:Chapter 16



Source Information
Release: Rambo.2008.EXTENDED.2160p.BluRay.x265.10bit.SDR.DTS-HD.MA.TrueHD.7.1.Atmos-SWTYBLZ.mkv (32.86 GBs)



Note From UTR
Whilst we are happy for our releases to be re-posted on a platform we aren't on, please do so in an 'as-is' format. We ask that you do not create a new torrent, include all descriptions you see above including the UTR logo, tags, notes and screenshots. If you'd like to become a permanent poster on a website we don't post to, feel free to get in contact with a UTR member.
If possible please donate: BTC 1QA5fum5AyXvWzdVCkQzUNvw3Ef15fHRaR



Category:Movies > HEVC/x265
Lang:English  English
Total Size:1.31 GB
Info Hash:a48985722ff7ff9a317f409e609fed7665105864
Added By:UTR
Date Added:09-10-2019 14:06:28

  

Files

File List: 
 File Size
Rambo 2008 EXTENDED (1080p x265 10bit S81 Joy).mkv1.31 GB



Comments

<< Previous      Next >>
1 - 2

[Report] Posted: 10-04-2020 at 10:45:14
freslymesin


how I can get link torrent for this film?

[Report] Posted: 10-04-2020 at 15:46:17
gerald99


Hopefully torrent links will be up by next week.

1 - 2
<< Previous      Next >>


Disclaimer: None of the files shown here are actually hosted or transmitted by this server. The links are provided solely by this site's users. The site moderation is also a service provided by the site's users. The administrator of this site (ettv.be) cannot be held responsible for what its users post, or any other actions of its users. You may not use this site to distribute or download any material when you do not have the legal rights to do so. It is your own responsibility to adhere to these terms.