Becky 2020 locke and key s01e06 Blindspot Harley Quinn s02e10 Rick and Morty S04E10 The 100 S07E03 etrg The Walking Dead  The Hunt 2020 dc week SEAL Team Jersey Shore Family Vacation s03e27 Marvels Agents of S.H.I.E.L.D. S07E02 ethd BILLIONS rq.mp4 alex rider Chicago Fire The Last Days of American Crime 2020 13 Reasons Why Season 4 WWE Bering Sea Gold S12E05 Greys Anatomy ita evo Space Force s01e02 Survive the Night 2020 ddr harley quinn Gangs of London S01E07 Marvel Week The Blackout Invasion Earth 2019 killing eve in the dark Birds of Prey (and the Fantabulous Emancipation of One Harley Quinn) 2020 13 Reasons Why S04 XXX game of thrones Last Week Tonight 0 ufc 2160p The Gentlemen 2020 what we do in the shadows ettv Chicago PD Rick and Morty etmovies snowpiercer yts Brazzers Best Of Brazzers Scoob! 2020 love life The Invisible Man 2020 Blindspot S05E04 stargirl Hindi  Real Time with Bill Maher S18E17 Choked the 100 13 Reasons Why Space Force S01E01 Westworld Alex Rider S01E01 legends of tomorrow YTS Bad Boys for Life 2020 Chicago Med hindi 2020 
ETTV Recommended TV Shows
Man.With.a.Plan.S04E12.720p.x265.ETRG torrent
In.the.Dark.2019.S02E08.HDTV.x264-SVA[ettv] torrent
Blindspot.S05E04.HDTV.x264-SVA[ettv] torrent
WWE Friday Night SmackDown 2020 06 05 HDTV x264-NWCHD [TJET] torrent
Jimmy.Fallon.2020.06.04.Bernie.Sanders.WEB.h264-TRUMP[ettv] torrent
Real.Time.with.Bill.Maher.2020.06.05.WEB.h264-TRUMP[ettv] torrent

ETTV Recommended SD
Sniper Assassins End.2020.BDRip.x264.AC3-EVO.ETRG torrent
Hammer.2020.1080p.WEBRip.X264.DD.5.1-EVO.ETRG torrent
Three.Christs.2020.BDRip.x264.AC3-EVO.ETRG torrent
Dating.Amber.2020.1080p.AMZN.WEBRip.X264.DD.5.1-EVO.ETRG torrent

ETTV Recommended HD
The.Last.Days.of.American.Crime.2020.NF.WEB-DL.DDP2.0.x264-CMRG[EtHD] torrent
Shutter.Island.2010.BRRip.1080p.HEVC.HDR.Eng.DD5.1.ETRG torrent
Dating.Amber.2020.1080p.AMZN.WEBRip.X264.DD.5.1-EVO[EtHD] torrent
Annabellum.The.Curse.of.Salem.2019.1080p.WEB-DL.AAC2.0.H.264-CMRG[EtHD] torrent

ETTV Recommended UHD
Suicide.Squad.Hell.to.Pay.2018.MULTi.UHD.BluRay.2160p.HDR.DTS-HDMA.5.1.HEVC-DDR.mkv torrent
The.Shining.1980.BDRip.2160p.UHD.HDR.Eng.DTS-HD.MA.ETRG torrent
Shutter.Island.2010.BDRip.2160p.UHD.HDR.Eng.DTS-HD.MA.ETRG torrent
Birds of Prey (e la fantasmagorica rinascita di Harley Quinn) (2020) [BluRay Rip 2160p HEVC 10bit-HDR ITA-ENG DTS-AC3-SUBS] [M@HD] torrent

ETTV Recommended Cam
The Hunt 2020 HDCAM x264 AC3-ETRG torrent
The Burnt Orange Heresy 2020 720p HDCAM-C1NEM4 torrent

ETTV Recommended Foreign
Motel Acacia (2019) HDRip 720p [Hindi-Dub] Dual-Audio x264 - 1XCinema torrent
Robotrix (1991) UNRATED 720p BluRay x264 Eng Subs [Dual Audio] [Hindi DD 2.0 - Chinese 2.0] Exclusive By -=!Dr.STAR!=- torrent
Sarileru Neekevvaru (2020) [TELUGU - 720p - WEB HDRip - x264 - DD 5.1 - MSub - 2GB] - MAZE torrent
Murder Manual (2020) HDRip 720p [Hindi-Sub] x264 - 1XCinema torrent

AD_BLOCK


Download Torrent "Subedar Joginder Singh 2018 x264 720p HD 5.1 Dual Audio Hindi Punjabi GOPIS..."

IMDB Details
Description:

It is a biographical feature film on India's Highest Wartime Gallantry Award - Param Vir Chakra winner Subedar Joginder Singh. He fought three wars (as per records) for India before ...

Genre:

Drama, War

Download Torrent (Magnet)
Download Torrent (File)
Seeds: 514
Leechers: 367
Completed: 1,820 
Last Checked: 10-10-2019 04:23:42


Details
Title:Subedar Joginder Singh 2018 x264 720p HD 5.1 Dual Audio Hindi Punjabi GOPIS...
Description:
https://www.gopisahi.xyz/



Subedar Joginder Singh 2018 x264 720p HD 5.1 Dual Audio Hindi  Punjabi GOPISAHI

Format                         : Matroska
Format version                 : Version 4
File size                      : 1.24 GiB
Duration                       : 2 h 17 min
Overall bit rate               : 1 286 kb/s
Movie name                     : Subedar Joginder Singh 2018 GOPISAHI
Description                    : It is a biographical feature film on India's Highest Wartime Gallantry Award - Param Vir Chakra
Released date                  : 2018-04-06T07:00:00Z
Encoded date                   : UTC 2019-10-10 02:55:27
ARTIST                         : Simerjit Singh
GENRE                          : Drama
SYNOPSIS                       : It is a biographical feature film on India's Highest Wartime Gallantry Award - Param Vir Chakra winner Subedar Joginder Singh. He fought three wars for India before achieving martyrdom in the Sino-Indian War of 1962 while commanding a platoon in North Eastern Frontier Agency (NEFA). The story portrays his character and motivation in the scene of battle.

Video
Format                         : AVC
Format/Info                    : Advanced Video Codec
Format profile                 : [email protected]
Format settings                : CABAC / 12 Ref Frames
Format settings, CABAC         : Yes
Format settings, Reference fra : 12 frames
Codec ID                       : V_MPEG4/ISO/AVC
Duration                       : 2 h 17 min
Bit rate                       : 899 kb/s
Width                          : 1 280 pixels
Height                         : 524 pixels
Display aspect ratio           : 2.40:1
Frame rate mode                : Constant
Frame rate                     : 24.000 FPS
Color space                    : YUV
Chroma subsampling             : 4:2:0
Bit depth                      : 8 bits
Scan type                      : Progressive
Bits/(Pixel*Frame)             : 0.056
Stream size                    : 886 MiB (70%)
Title                          : GOPISAHI
Writing library                : x264 core 157 r2935 545de2f

Audio #1
Format                         : AAC LC
Duration                       : 2 h 17 min
Bit rate                       : 192 kb/s
Channel(s)                     : 6 channels
Channel layout                 : C L R Ls Rs LFE
Sampling rate                  : 48.0 kHz
Frame rate                     : 46.875 FPS (1024 SPF)
Compression mode               : Lossy
Delay relative to video        : -63 ms
Stream size                    : 190 MiB (15%)
Title                          : GOPISAHI
Language                       : Panjabi

Audio #2
Format                         : AAC LC
Duration                       : 2 h 17 min
Bit rate                       : 192 kb/s
Channel(s)                     : 6 channels
Channel layout                 : C L R Ls Rs LFE
Sampling rate                  : 48.0 kHz
Frame rate                     : 46.875 FPS (1024 SPF)
Compression mode               : Lossy
Delay relative to video        : -63 ms
Stream size                    : 190 MiB (15%)
Title                          : GOPISAHI
Language                       : Hindi







Category:Movies > Bollywood
Lang:Hindi  Hindi
Total Size:1.24 GB
Info Hash:15c50a6796952e91598ba97f346daae7e9b75b94
Added By:GOPISAHI
Date Added:10-10-2019 04:23:39

Files

File List: 
 File Size
Subedar Joginder Singh 2018 x264 720p HD 5.1 Dual Audio Hindi Punjabi GOPISAHI.mkv1.24 GB



Comments

There are currently no comments. Be the first one to write something !

Disclaimer: None of the files shown here are actually hosted or transmitted by this server. The links are provided solely by this site's users. The site moderation is also a service provided by the site's users. The administrator of this site (ettv.be) cannot be held responsible for what its users post, or any other actions of its users. You may not use this site to distribute or download any material when you do not have the legal rights to do so. It is your own responsibility to adhere to these terms.