ita Space Force  rq.mp4 Marvels Agents of S.H.I.E.L.D. S07E01 rick and morty UFC minx Hindi 2020 Defending Jacob S01E08 0 yts the 100 s07e02 Defending Jacob  stargirl Space Force s01e04 Brazzers Best Of Brazzers Birds of Prey (and the Fantabulous Emancipation of One Harley Quinn) 2020 insecure wwe Blindspot S05E03 Space Force s01e02 Rick and Morty S04E10 Penny Dreadful City of Angels S01E06 2160p DC week Snowpiercer s01e03 Killing Eve S03E08 evo Space Force S01E01 harley quinn The Wrong Missy 2020 ethd Scoob! 2020 the 100 killing eve hindi ddr 90 Day Fiance Before The 90 Days S04E15 joker 2019 Blindspot penny dreadful devils The Hunt 2020 billions s05e05 Survive the Night 2020 Bad Boys for Life 2020 SEAL Team  Stargirl S01E03 Legends of Tomorrow Last Week Tonight The Invisible Man 2020 etmovies westworld Bloodshot 2020 etrg billions Law and Order SVU Last Week Tonight with John Oliver S07E13 Snowpiercer Hightown S01E03 Locke  The Gentlemen 2020 Space Force s01e03 hightown ettv Rick and Morty S04E09 Xxx The High Note 2020 Inheritance 2020 
ETTV Recommended TV Shows
I.Know.This.Much.Is.True.S01E04.WEB.H264-BTX[ettv] torrent
Rick.and.Morty.S04E10.1080p.WEBRip.x264-BTX[ettv] torrent
Snowpiercer.S01E03.WEBRip.x264-BTX[ettv] torrent
Stargirl.S01E03.1080p.WEB.H264-BTX[ettv] torrent

ETTV Recommended SD
The.Hauting.Of.Molly.Bannister.2020.HDRip.XviD.AC3-EVO torrent
Trick.Or.Treat.2019.HDRip.XviD.AC3-EVO torrent
No.Apology.2020.HDRip.XviD.AC3-EVO torrent
Feral.2020.HDRip.XviD.AC3-EVO torrent

ETTV Recommended HD
Trick.Or.Treat.2019.1080p.WEB-DL.H264.AC3-EVO[EtHD] torrent
Jesus.Shows.You.The.Way.To.The.Highway.2019.1080p.WEB-DL.H264.AC3-EVO[EtHD] torrent
One.Glorious.Sunset.2020.1080p.AMZN.WEBRip.X264.DD.2.0-EVO[EtHD] torrent
Air.Force.One.1997.BRRip.1080.HEVC.HDR.Eng.DD5.1.ETRG torrent

ETTV Recommended UHD
First.reformed.2017.UHD.2160p.HDR.WebRip.DDP.5.1.HEVC-DDR.mkv torrent
Rush.2013.MULTi.UHD.2160p.HDR.DTS-HDMA.5.1.HEVC-DDR.mkv torrent
Thor.Ragnarok.2017.BDRip.2160P.UHD.HDR.Eng.TrueHD.ETRG torrent
Air.Force.One.1997.BDRip.2160.UHD.HDR.Eng.TrueHD.ETRG torrent

ETTV Recommended Cam
The Hunt 2020 HDCAM x264 AC3-ETRG torrent
The Burnt Orange Heresy 2020 720p HDCAM-C1NEM4 torrent

ETTV Recommended Foreign
Atlantis: The Lost Continent - Atlantide il continente perduto (1961).720p.H264.ita.eng.sub.eng-MIRCrew torrent
Shab 2017 Hindi 1080p Web-DL x264 AAC [TMB] torrent
Chippa.2018.1080p.NF.WEB-DL.DDP5.1.x264-Telly torrent
Chacha.Chaudhary.S01.2019.1080p.DSNP+.WEB-DL.AAC.2.0.x264-Telly torrent

AD_BLOCK


Download Torrent "American.Gangster.2007.MULTi.UHD.Blu-ray.2160p.HDR.DTS-X.7.1.HEVC.DDR"

IMDB Details
Description:

An outcast New York City cop is charged with bringing down Harlem drug lord Frank Lucas, whose real life inspired this partly biographical film.

Genre:

Biography, Crime, Drama, Thriller

Download Torrent (Magnet)
Download Torrent (File)
Seeds: 202
Leechers: 482
Completed: 675 
Last Checked: 14-10-2019 08:44:24


Details
Title:American.Gangster.2007.MULTi.UHD.Blu-ray.2160p.HDR.DTS-X.7.1.HEVC.DDR
Description:




SPECS

Source : UHD Blu-ray

Format                                   : Matroska
File size                                : 28.8 GiB
Duration                                 : 2 h 55 min
Overall bit rate mode                    : Variable
Overall bit rate                         : 23.5 Mb/s

Video
Format                                   : HEVC/HDR
Bit rate                                 : 15.8 Mb/s
Width                                    : 3 840 pixels
Height                                   : 2 072 pixels
Bit depth                                : 10 bits
Color primaries                          : BT.2020
Transfer characteristics                 : PQ
Matrix coefficients                      : BT.2020 non-constant
Mastering display color primaries        : Display P3
Mastering display luminance              : min: 0.0050 cd/m2, max: 5100 cd/m2
Maximum Content Light Level              : 1179 cd/m2
Maximum Frame-Average Light Level        : 501 cd/m2


Audio
Audio #1
ID                                       : 2
Format                                   : DTS XLL X
Format/Info                              : Digital Theater Systems
Commercial name                          : DTS-HD Master Audio
Codec ID                                 : A_DTS
Duration                                 : 2 h 55 min
Bit rate mode                            : Variable
Bit rate                                 : 5 844 kb/s
Channel(s)                               : 8 channels
Channel(s)_Original                      : Object Based
Channel layout                           : Object Based
Sampling rate                            : 48.0 kHz
Frame rate                               : 93.747 FPS (512 SPF)
Bit depth                                : 24 bits
Stream size                              : 7.18 GiB (25%)
Language                                 : English
Default                                  : Yes
Forced                                   : No

Audio #2
ID                                       : 3
Format                                   : DTS
Format/Info                              : Digital Theater Systems
Codec ID                                 : A_DTS
Duration                                 : 2 h 55 min
Bit rate mode                            : Constant
Bit rate                                 : 768 kb/s
Channel(s)                               : 6 channels
Channel layout                           : C L R Ls Rs LFE
Sampling rate                            : 48.0 kHz
Frame rate                               : 93.750 FPS (512 SPF)
Bit depth                                : 24 bits
Compression mode                         : Lossy
Stream size                              : 966 MiB (3%)
Language                                 : Spanish
Default                                  : No
Forced                                   : No

Audio #3
ID                                       : 4
Format                                   : DTS
Format/Info                              : Digital Theater Systems
Codec ID                                 : A_DTS
Duration                                 : 2 h 55 min
Bit rate mode                            : Constant
Bit rate                                 : 768 kb/s
Channel(s)                               : 6 channels
Channel layout                           : C L R Ls Rs LFE
Sampling rate                            : 48.0 kHz
Frame rate                               : 93.750 FPS (512 SPF)
Bit depth                                : 24 bits
Compression mode                         : Lossy
Stream size                              : 966 MiB (3%)
Language                                 : French
Default                                  : No
Forced                                   : No

Audio #4
ID                                       : 5
Format                                   : AC-3
Format/Info                              : Audio Coding 3
Commercial name                          : Dolby Digital
Codec ID                                 : A_AC3
Duration                                 : 2 h 55 min
Bit rate mode                            : Constant
Bit rate                                 : 192 kb/s
Channel(s)                               : 2 channels
Channel layout                           : L R
Sampling rate                            : 48.0 kHz
Frame rate                               : 31.250 FPS (1536 SPF)
Bit depth                                : 16 bits
Compression mode                         : Lossy
Stream size                              : 241 MiB (1%)
Language                                 : English commentary


Subs:
En Fr Sp



[email protected]
Category:Movies > UltraHD/4K
Lang:English  English
Total Size:28.81 GB
Info Hash:52e714532f9782e98180fe7306409deed46c8165
Added By:DDR
Date Added:14-10-2019 08:44:21

  

Files

File List: 
 File Size
0A DDR Release !!!.txt287.00 B
0Torrent downloaded from Desitorrents.tv.txt28.00 B
American.Gangster.2007.MULTi.UHD.Blu-ray.2160p.HDR.DTS-X.7.1.HEVC.DDR.mkv28.81 GB



Comments

<< Previous      Next >>
1 - 3

[Report] Posted: 15-10-2019 at 09:20:45
evenrios


Thank you DDR, MikeKhan

[Report] Posted: 16-10-2019 at 04:50:31
alexdinpoik


Thanks DDR for this and the scarface xD
more gangsta / maffioso stuff <3
luckly i found these on the first page nice to have in my collection

[Report] Posted: 22-11-2019 at 17:45:21
viski


dude, mere bhai i request you to pls add hindi audio.
tk care

1 - 3
<< Previous      Next >>


Disclaimer: None of the files shown here are actually hosted or transmitted by this server. The links are provided solely by this site's users. The site moderation is also a service provided by the site's users. The administrator of this site (ettv.be) cannot be held responsible for what its users post, or any other actions of its users. You may not use this site to distribute or download any material when you do not have the legal rights to do so. It is your own responsibility to adhere to these terms.