rq.mp4 Xxx Yellowstone s03e03 Condor S02E06 Greyhound 2020 Hanna s02e03 ita  Hanna s02e06 Desperados 2020 Big Dogs S01E01 The King of Staten Island 2020 doom patrol marvel week Blindspot S05E09 ettv Marvels Agents of S.H.I.E.L.D. S07E07 etmovies hanna breathe into the shadows The Outpost 2020 the protector the 100 The Old Guard Seal Team Hanna s02e02 0 evo Yellowstone S03E04 greyhound Doom Patrol s02e05 ddr ethd blindspot The Real Housewives of Beverly Hills S10E09 hindi 2020 hindi Trolls World Tour 2020 Scoob! 2020 old guard dc week wwe dark The Real Housewives of New York City S12E13 condor Hamilton 2020 Force of Nature 2020 the challenge s35e15 undekhi etrg Irresistible 2020 Artemis Fowl 2020 snowpiercer Perry Mason s01e03 Hanna s02e08 Yellowstone breathe Alone S07E05 in the dark yts palm springs Eurovision Song Contest The Story of Fire Saga 2020 In the Dark S02E13 The Old Guard 2020 Hanna s02e01 Blindspot S05E10 The 100 S07E08 You Should Have Left 2020 Hanna s02e05 stargirl 
Warning! Use a VPN When Downloading Torrents!
Your IP Address is 3.226.97.214. Location United States
Your Internet Provider can see when you download torrents! Hide your IP Address with a VPN
ETTV warns: You should use VPN to hide your torrenting. HIDE ME NOW
ETTV Recommended TV Shows
Doom.Patrol.S02E05.1080p.HEVC.x265.Eng.DD.5.1.MeGusta.ETRG torrent
Blindspot.S05E09.720p.HDTV.x264-AVS[ettv] torrent
Blindspot.S05E10.720p.HDTV.x264-AVS[ettv] torrent
WWE Main Event 2020 07 08 720p WEB h264-TBS [TJET] torrent
The.Bold.Type.S04E15.WEB.h264-TBS[ettv] torrent
Greatness.Code.S01E01.1080p.WEB.h264-TRUMP[ettv] torrent

ETTV Recommended SD
Greyhound.2020.HDRip.XviD.AC3-EVO[EtMovies] torrent
Archive.2020.HDRip.XviD.AC3-EVO[EtMovies] torrent
Palm.Springs.2020.HDRip.XviD.AC3-EVO[EtMovies] torrent
The.Old.Guard.2020.HDRip.XviD.AC3-EVO[EtMovies] torrent

ETTV Recommended HD
Palm.Springs.2020.1080p.HULU.WEB-DL.H264.AC3-EVO[EtHD] torrent
Archive.2020.1080p.WEB-DL.H264.AC3-EVO[EtHD] torrent
The.Old.Guard.2020.NF.WEB-DL.DD5.1.x264-CMRG[EtHD] torrent
Greyhound.2020.1080p.ATVP.WEB-DL.H264-EVO[EtHD] torrent

ETTV Recommended UHD
INXS - Live Baby Live 1991 (2020).UHD.Bluray.2160p.HDR.Atmos.7.1.HEVC-DDR.mkv torrent
Tropic.Thunder.2008.MULTi.TC.2160p.HDR.WEBRip.DTS-HDMA.5.1.HEVC-DDR.mkv torrent
Playing.with.Fire.2019.4K.MULTI.2160p.HDR.WEBRip.DTS-HDMA.5.1.HEVC-DDR.mkv torrent
The.Last.Days.of.American.Crime.2020.4K.MULTI.2160p.HDR.WEBRip.DDP.5.1.HEVC-DDR.mkv torrent
Onward - Oltre la magia (2020) [BluRay Rip 2160p HEVC 10bit-HDR ITA-ENG DD+AC3-SUBS] [M@HD] torrent
Greyhound.2020.2160p.WEB-Rip.DDP5.1.Atmos.HDR.HEVC-DDR.mkv torrent

ETTV Recommended Cam
The Hunt 2020 HDCAM x264 AC3-ETRG torrent
The Burnt Orange Heresy 2020 720p HDCAM-C1NEM4 torrent

ETTV Recommended Foreign
Shadow.Animals.[Skuggdjur].2017.1080p.WEBRip.x264.AAC.HORiZON-ArtSubs torrent
Gauguin.a.Tahiti.Il.Paradiso Perduto.2019 HDTV 1080p Ita x265-NAHOM torrent
Centurion (2010) AC3 5.1 ITA.ENG 1080p H265 sub ita.eng Sp33dy94 MIRCrew torrent
The.Old.Guard.2020.1080p.NF.WEB-DL.HIN-ENG.DDP5.1.Atmos.x264-Telly torrent
Coktail (2020) [TAMIL - 720p - WEB HDRip - x264 - DD 5.1 - ESub - 2GB] - MAZE torrent
47 Meters Down-Uncaged (2019) Dual Audio Hindi-English 720p BluRay ESubs [FPRG] torrent

ETTV Recommended Misc
[alt-country, indie-rock] (2020) My Morning Jacket - The Waterfall II [FLAC] [DarkAngie] torrent
Summer Walker - Life On Earth - EP (2020) Mp3 (320kbps) [Hunter] torrent
Headdock - Hidden Sounds & Vibrations 10-07-2020 {1337x} torrent
Kid Cudi feat. Eminem - The Adventures of Moon Man & Slim Shady (2020) [Single] Mp3 320kbps [PMEDIA] ⭐️.mp3 torrent
Juice WRLD Legends Never Die Rap Album Mp3~(2020) [320]  kbps Beats⭐ torrent
The Rolling Stones - Steel Wheels (Remastered) (2020) [320 KBPS]  torrent


Download Torrent "Goyenda Junior 2019 Bengali 1080p WEB-DL x264 AAC { TaRa }.mkv"

IMDB Details
Description:

N/A

Genre:

N/A

Download Torrent (Magnet)
Download Torrent (File)

Seeds: 375
Leechers: 300

Uploaded by:
Sk3yTara


Category:
Movies > HD 1080p (Great for large screens)


Details
Title:Goyenda Junior 2019 Bengali 1080p WEB-DL x264 AAC { TaRa }.mkv
Description:

Goyenda Junior 2019 Bengali 1080p WEB-DL x264 AAC { TaRa }.mkv


===================================================================
General
Complete name               : Goyenda Junior 2019 Bengali 1080p WEB-DL x264 AAC { TaRa }.mkv
Format                      : Matroska
Format version              : Version 4
File size                   : 1.32 GiB
Duration                    : 1 h 57 min
Overall bit rate mode       : Variable
Overall bit rate            : 1 616 kb/s
===================================================================
Video
ID                          : 1
Format                      : AVC
Format/Info                 : Advanced Video Codec
Format profile              : [email protected]
Format settings             : CABAC / 3 Ref Frames
Format settings, CABAC      : Yes
Format settings, Reference  : 3 frames
Codec ID                    : V_MPEG4/ISO/AVC
Duration                    : 1 h 57 min
Bit rate mode               : Variable
Bit rate                    : 1 488 kb/s
Maximum bit rate            : 2 400 kb/s
Width                       : 1 920 pixels
Height                      : 1 080 pixels
Display aspect ratio        : 16:9
Frame rate mode             : Constant
Frame rate                  : 24.000 FPS
Color space                 : YUV
Chroma subsampling          : 4:2:0
Bit depth                   : 8 bits
Scan type                   : Progressive
Bits/(Pixel*Frame)          : 0.030
Stream size                 : 1.22 GiB (92%)
Title                       : .....::::: TaRa :::::.....
Language                    : Bengali
Default                     : Yes
Forced                      : No
===================================================================
Audio
ID                          : 2
Format                      : AAC LC
Format/Info                 : Advanced Audio Codec Low Complexity
Codec ID                    : A_AAC-2
Duration                    : 1 h 57 min
Bit rate                    : 125 kb/s
Channel(s)                  : 2 channels
Channel layout              : L R
Sampling rate               : 48.0 kHz
Frame rate                  : 46.875 FPS (1024 SPF)
Compression mode            : Lossy
Delay relative to video     : -33 ms
Stream size                 : 105 MiB (8%)
Title                       : .....::::: TaRa :::::.....
Language                    : Bengali
Default                     : Yes
Forced                      : No
===================================================================

















Category:Movies > HD 1080p
Lang:Unknown/NA
Total Size:1.32 GB
Info Hash:cd49d0bf00df26d873b8ed5f5a37e25f1bc027b7
Added By:Sk3yTara
Date Added:27-10-2019 03:30:28

  

Files

File List: 
 File Size
Goyenda Junior 2019 Bengali 1080p WEB-DL x264 AAC { TaRa }.mkv1.32 GB
goyenda-junior-et00108714-01-08-2019-03-25-08.jpg107.09 kB
maxresdefault.jpg109.53 kB
Torrent TaRa Digital Team PC Info.nfo6.53 kB
Torrent TaRa Digital Team.txt672.00 B



Comments

There are currently no comments. Be the first one to write something !