I AM NOT OKAY WITH this The outsider s01e08 Knives Out 2019 Doctor Who yts star wars the rise of skywalker 2019 DCs Legends of Tomorrow S05E06 ncis Legends of Tomorrow Homeland S08E03 greys anatomy Better Call Saul Birds of Prey (and the Fantabulous Emancipation of One Harley Quinn) 2020 For Life S01E03 STAR WARS parasite Wwe Sonic the Hedgehog 2020 Batwoman The Flash bad boys for life 2020 frozen ii 2019 ford v ferrari 2019 New Amsterdam better call saul s05e02 The Outsider Supergirl This Is Us S04E15 New Amsterdam S02E15 The walking dead project blue book s02e06 rq.mp4 flash the curse of oak island s07e14 better call saul s05e01 parasite 2019 the good doctor s03e16 Terminator Dark Fate 2019 The Curse of Oak Island Jumanji The Gentlemen 2019 ethd evo Hunters avenue 5 Hunters S01E01 Manifest picard hindi xxx jumanji the next level 2019 charlies angels 2019 superman red son This IS Us Joker 2019 The Walking Dead S10E09 etmovies The Flash S06E13 The Call Of Cthulhu The good doctor Homeland ita fantasy island 2020 The Bachelor S24E09 ettv 1917 2019 Project Blue Book The Call of the Wild 2020 etrg ddr superman red son 2020 star trek picard s01e05 
Warning! Use a V.P.N when Downloading Torrents!
Your IP Address is 35.173.57.84. Location is United States
Your Internet Provider is tracking your torrent activity! Hide your IP ADDRESS with a V.P.N!
We strongly recommend using ExpressVP-N to anonymize your torrenting. 30 Day Money Back Guarantee!
Try it Now!
ETTV Recommended TV Shows
SEAL.Team.S03E11.WEB.x264-XLF[ettv] torrent
Chicago.Med.S05E15.WEB.x264-XLF[ettv] torrent
Chicago.Fire.S08E15.WEB.x264-XLF[ettv] torrent
Chicago.PD.S07E15.WEB.h264-TBS[ettv] torrent

ETTV Recommended SD
Philophobia.Or.The.Fear.Of.Falling.In.Love.2019.BRRip.XviD.AC3-EVO torrent
Jumanji.The.Next.Level.2019.HDRip.XviD.AC3-EVO torrent
Bombshell.2019.BDRip.XviD.AC3-EVO torrent
Spies.In.Disguise.2019.BRRip.XViD.AC3-ETRG torrent

ETTV Recommended HD
Ride.Like.A.Girl.2019.1080p.REPACK.BluRay.x264-PFa[EtHD] torrent
Inherit.The.Viper.2019.1080p.Bluray.DTS-HD.MA.5.1.X264-EVO[EtHD] torrent
Uncut Gems.2019.1080p.Bluray.DTS-HD.MA.5.1.X264-EVO[EtHD] torrent
Wonder.2017.BRRip.1080p.HEVC.HDR.Eng.Fre.Spa.DD5.1.ETRG torrent

ETTV Recommended UHD
Frozen II 2019.MULTi.UHD.BluRay.2160p.HDR.TrueHD.Atmos.7.1.HEVC.DDR torrent
Queen and Slim.2019.UHD.BluRay.2160p.HDR.Atmos.7.1.HEVC-DDR torrent
Midway 2019.MULTi.UHD.BluRay.2160p.HDR.TrueHD.Atmos.7.1.HEVC.DDR torrent
Wonder.2017.BDRip.2160p.UHD.HDR.Eng.Fre.Spa.TrueHD.DD5.1.ETRG torrent

ETTV Recommended Cam
Emma 2020 720p HDCAM-C1NEM4 torrent
Sonic the Hedgehog.2020.READNFO.HDCAM.x264-ETRG torrent
Brahms The Boy 2 2020 HDCAM x264 -ETRG torrent
The Call of the Wild 2020 HDCAM NO ADS x264-ETRG torrent

ETTV Recommended Foreign
Days of Power (2018) 720p BluRay x264 Eng Subs [Dual Audio] [Hindi DD 2.0 - English 2.0] Exclusive By -=!Dr.STAR!=- torrent
Ibiza Undead (2016) 720p WEBRip x264 [Dual Audio] [Hindi DD 2.0 - English 2.0] Exclusive By -=!Dr.STAR!=- torrent
Pokémon - Mewtwo Strikes Back - Evolution.2019.1080p.NF.WEB-DL.Multi.DD+5.1.x264-Telly torrent
Parasite 2019.MULTi.UHD.Bluray.2160p.HDR.Atmos.7.1.HEVC.(Kor Fr)-DDR torrent


Download Torrent "Marvel's Runaways S03 1080p AMZN WebRip DDP 5.1 x265 [SEV]"

IMDB Details
Description:

After discovering their parents are super-villains in disguise, a group of teenagers band together to run away from their homes in order to atone for their parents' actions and to discover the secrets of their origins.

Genre:

Action, Drama, Sci-Fi

Download Torrent (Magnet)
Download Torrent (File)
Seeds: 99
Leechers: 110
Completed: 384 
Last Checked: 23-12-2019 16:01:56


Details
Title:Marvel's Runaways S03 1080p AMZN WebRip DDP 5.1 x265 [SEV]
Description:





Media Information

Unique ID                                : 53108358276991943109941475416330124519 (0x27F44C395CEFDA58A1BA4AEE5F12BCE7)
Complete name                            : Marvel's Runaways S03E01 Smoke and Mirrors 1080p x265 AMZN WEBrip DDP5.1 D0ct0rLew[SEV].mkv
Format                                   : Matroska
Format version                           : Version 4
File size                                : 1.62 GiB
Duration                                 : 51 min 2 s
Overall bit rate                         : 4 545 kb/s
Movie name                               : Marvels Runaways S03E01 1080p x265 AMZN WEBrip DDP5.1 D0ct0rLew[SEV]
Encoded date                             : UTC 2019-12-17 23:52:49
Writing application                      : mkvmerge v37.0.0 ('Leave It') 64-bit
Writing library                          : libebml v1.3.9 + libmatroska v1.5.2

Video
ID                                       : 1
Format                                   : HEVC
Format/Info                              : High Efficiency Video Coding
Format profile                           : Main [email protected]@Main
Codec ID                                 : V_MPEGH/ISO/HEVC
Duration                                 : 51 min 2 s
Bit rate                                 : 3 903 kb/s
Width                                    : 1 920 pixels
Height                                   : 1 080 pixels
Display aspect ratio                     : 16:9
Frame rate mode                          : Constant
Frame rate                               : 23.976 (24000/1001) FPS
Color space                              : YUV
Chroma subsampling                       : 4:2:0
Bit depth                                : 10 bits
Bits/(Pixel*Frame)                       : 0.078
Stream size                              : 1.39 GiB (86%)
Writing library                          : x265 3.1+11-de920e0a3183:[Windows][MSVC 1922][64 bit] 10bit
Encoding settings                        : cpuid=1111039 / frame-threads=3 / numa-pools=8 / wpp / no-pmode / no-pme / no-psnr / no-ssim / log-level=2 / input-csp=1 / input-res=1920x1080 / interlace=0 / total-frames=73432 / level-idc=0 / high-tier=1 / uhd-bd=0 / ref=4 / no-allow-non-conformance / no-repeat-headers / annexb / no-aud / no-hrd / info / hash=0 / no-temporal-layers / open-gop / min-keyint=24 / keyint=240 / gop-lookahead=0 / bframes=12 / b-adapt=2 / b-pyramid / bframe-bias=0 / rc-lookahead=90 / lookahead-slices=4 / scenecut=40 / radl=0 / no-splice / no-intra-refresh / ctu=64 / min-cu-size=8 / no-rect / no-amp / max-tu-size=32 / tu-inter-depth=3 / tu-intra-depth=3 / limit-tu=0 / rdoq-level=2 / dynamic-rd=0.00 / no-ssim-rd / signhide / no-tskip / nr-intra=0 / nr-inter=0 / no-constrained-intra / no-strong-intra-smoothing / max-merge=3 / limit-refs=3 / limit-modes / me=3 / subme=7 / merange=92 / temporal-mvp / no-hme / weightp / no-weightb / no-analyze-src-pics / deblock=0:0 / sao / no-sao-non-deblock / rd=4 / no-early-skip / rskip / no-fast-intra / no-tskip-fast / no-cu-lossless / no-b-intra / no-splitrd-skip / rdpenalty=0 / psy-rd=1.40 / psy-rdoq=1.00 / no-rd-refine / no-lossless / cbqpoffs=0 / crqpoffs=0 / rc=crf / crf=18.8 / qcomp=0.60 / qpstep=4 / stats-write=0 / stats-read=0 / ipratio=1.40 / pbratio=1.30 / aq-mode=4 / aq-strength=1.00 / cutree / zone-count=0 / no-strict-cbr / qg-size=32 / no-rc-grain / qpmax=69 / qpmin=0 / no-const-vbv / sar=1 / overscan=0 / videoformat=5 / range=0 / colorprim=2 / transfer=2 / colormatrix=2 / chromaloc=0 / display-window=0cll=0,0 / min-luma=0 / max-luma=1023 / log2-max-poc-lsb=8 / vui-timing-info / vui-hrd-info / slices=1 / no-opt-qp-pps / no-opt-ref-list-length-pps / no-multi-pass-opt-rps / scenecut-bias=0.05 / no-opt-cu-delta-qp / no-aq-motion / no-hdr / no-hdr-opt / no-dhdr10-opt / no-idr-recovery-sei / analysis-reuse-level=5 / scale-factor=0 / refine-intra=0 / refine-inter=0 / refine-mv=0 / refine-ctu-distortion=0 / no-limit-sao / ctu-info=0 / no-lowpass-dct / refine-analysis-type=0 / copy-pic=1 / max-ausize-factor=1.0 / no-dynamic-refine / no-single-sei / no-hevc-aq / no-svt / no-field / qp-adaptation-range=1.00
Default                                  : Yes
Forced                                   : No

Audio
ID                                       : 2
Format                                   : E-AC-3
Format/Info                              : Enhanced AC-3
Commercial name                          : Dolby Digital Plus
Codec ID                                 : A_EAC3
Duration                                 : 51 min 2 s
Bit rate mode                            : Constant
Bit rate                                 : 640 kb/s
Channel(s)                               : 6 channels
Channel layout                           : L R C LFE Ls Rs
Sampling rate                            : 48.0 kHz
Frame rate                               : 31.250 FPS (1536 SPF)
Compression mode                         : Lossy
Stream size                              : 234 MiB (14%)
Language                                 : English
Service kind                             : Complete Main
Default                                  : Yes
Forced                                   : No

Text
ID                                       : 3
Format                                   : UTF-8
Codec ID                                 : S_TEXT/UTF8
Codec ID/Info                            : UTF-8 Plain Text
Duration                                 : 49 min 59 s
Bit rate                                 : 75 b/s
Count of elements                        : 881
Stream size                              : 27.7 KiB (0%)
Title                                    : SDH
Language                                 : English
Default                                  : No
Forced                                   : No

We have no issue with individuals posting or re-uploading our torrents on a platform we aren't on. However, if this is something you'd like to do, please do so in a 'as-is' format. We ask that you do not create a new torrent, include all descriptions you see above including the SEV logo, tags, notes and screenshots.
If you'd like to become a permanent poster on a website we don't post to, feel free to get in contact with a Sublime Encoded Video member.

We are recruiting/training new members for SEV & seedbox providers as well as people to help out with subtitles.
As you already know, we deliver quality, so you know the standard.
If you're interested, feel free to contact any of the team members.

Category:TV > HEVC/x265
Lang:English  English
Total Size:17.65 GB
Info Hash:b6357d2dd2a559415f327618fc05777c9422665c
Added By:D0ct0rLew
Date Added:23-12-2019 16:01:51

  

Files

File List: 
 File Size
Contact SEV.txt1.03 kB
Marvel's Runaways S03E01 Smoke and Mirrors 1080p x265 AMZN WEBrip DDP5.1 D0ct0rLew[SEV].mkv1.62 GB
Marvel's Runaways S03E02 The Great Escape 1080p x265 AMZN WEBrip DDP5.1 D0ct0rLew[SEV].mkv1.56 GB
Marvel's Runaways S03E03 Lord of Lies 1080p x265 AMZN WebRip DDP 5.1 Kira [SEV].mkv1.82 GB
Marvel's Runaways S03E04 Rite of Thunder 1080p x265 AMZN WEBrip DDP5.1 D0ct0rLew[SEV].mkv1.76 GB
Marvel's Runaways S03E05 Enter the Dreamland 1080p x265 AMZN WEBrip DDP5.1 D0ct0rLew[SEV].mkv2.38 GB
Marvel's Runaways S03E06 Merry Meet Again 1080p x265 AMZN WebRip DDP 5.1 Kira [SEV].mkv1.66 GB
Marvel's Runaways S03E07 Left-Hand Path 1080p x265 AMZN WebRip DDP 5.1 Kira [SEV].mkv1.54 GB
Marvel's Runaways S03E08 Devil's Torture Chamber 1080p x265 AMZN WEBrip DDP5.1 D0ct0rLew[SEV].mkv2.09 GB
Marvel's Runaways S03E09 The Broken Circle 1080p x265 AMZN WEBrip DDP5.1 D0ct0rLew[SEV].mkv1.69 GB
Marvel's Runaways S03E10 Cheat the Gallows 1080p x265 AMZN WebRip DDP 5.1 Kira [SEV].mkv1.54 GB



Loading...
Comments

There are currently no comments. Be the first one to write something !

Disclaimer: None of the files shown here are actually hosted or transmitted by this server. The links are provided solely by this site's users. The site moderation is also a service provided by the site's users. The administrator of this site (ettv.be) cannot be held responsible for what its users post, or any other actions of its users. You may not use this site to distribute or download any material when you do not have the legal rights to do so. It is your own responsibility to adhere to these terms.