A Fall From Grace 2020 rq.mp4 Manifest S02E03 the good doctor Avenue 5 S01E01 Bad Boys for Life 2020 ddr etrg vikings s06e07 knives out 2019 Prodigal Son S01E11 xxx Manifest just mercy 2019 the outsider terminator dark fate 2019 Motherless Brooklyn 2019 Little Women 2019 Maleficent Mistress of Evil 2019 all rise s01e13 Star Wars The Rise of Skywalker 2019 9-1-1 Lone Star S01E01 underwater 2020 etmovies Jumanji The Next Level 2019 21 Bridges 2019 prodigal son Black Lightning S03E10 doctor sleep Doctor Who gemini man 2019 Parasite 2019 0 The Good Doctor S03E12 Jojo Rabbit 2019 The Outsider S01E01 the outsider s01e03 Once Upon a Time... in Hollywood 2019 Uncut Gems 2019 The Neighborhood S02E13 Bull S04E12 Charlies Angels 2019 Dolittle 2020 supergirl all rise 1917 2019 The Gentlemen 2020 evo 9-1-1 Lone Star S01E02 ettv power s06e13 Supergirl S05E10 Richard Jewell 2019 Frozen II 2019 curb your enthusiasm s10e01 Batwoman s01e10 shameless s10e11 Wwe Ray Donovan S07E10 The New Pope Joker 2019 bombshell 2019 Hindi ethd midway 2019 batwoman black lightning The Bachelor S24E03 yts like a boss 2020 vikings Ford v Ferrari 2019 
Warning! Use a V.P.N when Downloading Torrents!
Your IP Address is 35.168.111.191. Location is United States
Your Internet Provider is tracking your torrent activity! Hide your IP ADDRESS with a V.P.N!
We strongly recommend using ExpressVP-N to anonymize your torrenting. 30 Day Money Back Guarantee!
Try it Now!
ETTV Recommended TV Shows
The.Resident.S03E13.WEB.x264-XLF[ettv] torrent
Emergence.S01E12.HDTV.x264-SVA[ettv] torrent
FBI.Most.Wanted.S01E03.HDTV.x264-KILLERS[ettv] torrent
New.Amsterdam.2018.S02E11.HDTV.x264-SVA[ettv] torrent

ETTV Recommended SD
Just.Mercy.2019..DVDScr.XvId.AC3-ETRG torrent
Standing.Up.For.Sunny.2019.HDRip.XviD.AC3-EVO torrent
Koko.A.Red.Dog.Story.2019.HDRip.XviD.AC3-EVO torrent
The.Nomads.2019.HDRip.XviD.AC3-EVO torrent

ETTV Recommended HD
Just.Mercy.2019.720P.DVDScr.X264.AC3.HQ.Hive-CM8[EtHD] torrent
Linda.Ronstadt.The.Sound.of.My.Voice.2019.1080p.BluRay.x264-YOL0W[EtHD] torrent
3.Days.In.Havana.2013.1080p.AMZN.WEB-DL.DDP2.0.H.264-IKA[EtHD] torrent
Boris.and.the.Bomb.2019.1080p.AMZN.WEB-DL.DDP5.1.H.264-iKA[EtHD] torrent

ETTV Recommended UHD
Togo 2019.4K.HDR.2160p.WEBDL Sub Ita x265-NAHOM torrent
The.Witcher.S01.2160p.HDR.NF.WEBRip.DDP.Atmos.5.1.x265-TrollUHD torrent
Troop.Zero.2020.2160p.NF.WEBRip.DDP5.1.x264-AJP69 torrent
Pan's.Labyrinth.2006.4K.HDR.2160p.BDRip Ita Spa x265-NAHOM torrent

ETTV Recommended Cam
Dolittle 2020 HDCAM x264 AC3-ETRG torrent
Seberg 2019 HDCAM x264 AC3-ETRG torrent
The Grudge 2020 720p HDTC-GETB8 torrent
Bad Boys for Life 2020 HDCAM x264 AC3-ETRG torrent

ETTV Recommended Foreign
Future Justice (2014) 720p WEB-DL x264 Eng Subs [Dual Audio] [Hindi DD 2.0 - English 2.0] Exclusive By -=!Dr.STAR!=- torrent
Starship Troopers : Traitor of Mars (2017) 720p BluRay x264 Eng Subs [Dual Audio] [Hindi DD 2.0 - English 2.0] Exclusive By -=!Dr.STAR!=- torrent
8 Mile (2002) AC3 5.1 ITA.ENG 1080p H265 sub ita.eng Sp33dy94 MIRCrew torrent
Storage 24 (2012) 720p BluRay x264 Eng Subs [Dual Audio] [Hindi DD 2.0 - English 5.1] Exclusive By -=!Dr.STAR!=- torrent


Download Torrent "Terminator.Dark.Fate.2019.1080p.WEB-DL.DD5.1.x264.LLG"

IMDB Details
Description:

An augmented human and Sarah Connor must stop an advanced liquid Terminator, from hunting down a young girl, whose fate is critical to the human race.

Genre:

Action, Adventure, Sci-Fi

Download Torrent (Magnet)
Download Torrent (File)
Seeds: 140
Leechers: 173
Completed: 564 
Last Checked: 15-01-2020 00:25:50


Loading...
Details
Title:Terminator.Dark.Fate.2019.1080p.WEB-DL.DD5.1.x264.LLG
Description:




******************************Thumbnail:**********************




******************************Screenshots:******************** 

Screenshot 1

Screenshot 2

Screenshot 3

Screenshot 4

Screenshot 5

Screenshot 6

Screenshot 7

Screenshot 8

Screenshot 9

Screenshot 0

********************************************************** 

Terminator.Dark.Fate.2019.1080p.WEB-DL.DD5.1.x264.LLG.mp4
Format                                   : MPEG-4
Format profile                           : Base Media
Codec ID                                 : isom (isom/iso2/avc1/mp41)
File size                                : 3.93 GiB
Duration                                 : 2 h 8 min
Overall bit rate mode                    : Variable
Overall bit rate                         : 4 391 kb/s
Writing application                      : Lavf57.83.100

Video
ID                                       : 1
Format                                   : AVC
Format/Info                              : Advanced Video Codec
Format profile                           : [email protected]
Format settings                          : CABAC / 1 Ref Frames
Format settings, CABAC                   : Yes
Format settings, Reference frames        : 1 frame
Codec ID                                 : avc1
Codec ID/Info                            : Advanced Video Coding
Duration                                 : 2 h 8 min
Bit rate mode                            : Variable
Bit rate                                 : 4 004 kb/s
Maximum bit rate                         : 12.0 Mb/s
Width                                    : 1 920 pixels
Height                                   : 1 080 pixels
Display aspect ratio                     : 16:9
Frame rate mode                          : Constant
Frame rate                               : 23.976 (23976/1000) FPS
Color space                              : YUV
Chroma subsampling                       : 4:2:0
Bit depth                                : 8 bits
Scan type                                : Progressive
Bits/(Pixel*Frame)                       : 0.081
Stream size                              : 3.58 GiB (91%)
Codec configuration box                  : avcC

Audio
ID                                       : 2
Format                                   : AC-3
Format/Info                              : Audio Coding 3
Commercial name                          : Dolby Digital
Codec ID                                 : ac-3
Duration                                 : 2 h 8 min
Bit rate mode                            : Constant
Bit rate                                 : 384 kb/s
Channel(s)                               : 6 channels
Channel layout                           : L R C LFE Ls Rs
Sampling rate                            : 48.0 kHz
Frame rate                               : 31.250 FPS (1536 SPF)
Compression mode                         : Lossy
Stream size                              : 352 MiB (9%)
Title                                    : English
Language                                 : English
Service kind                             : Complete Main
Default                                  : Yes
Alternate group                          : 1





********************************************************** 




Category:Movies > HD 1080p
Lang:English  English
Total Size:3.95 GB
Info Hash:9cde7695e7cc125b980252adb26de2233a74efcf
Added By:LifeLongg
Date Added:15-01-2020 00:25:47

Files

File List: 
 File Size
SAMPLE.ts22 MB
Terminator.Dark.Fate.2019.1080p.WEB-DL.DD5.1.x264.LLG.mp43.93 GB



Loading...
Comments

There are currently no comments. Be the first one to write something !

Disclaimer: None of the files shown here are actually hosted or transmitted by this server. The links are provided solely by this site's users. The site moderation is also a service provided by the site's users. The administrator of this site (ettv.be) cannot be held responsible for what its users post, or any other actions of its users. You may not use this site to distribute or download any material when you do not have the legal rights to do so. It is your own responsibility to adhere to these terms.