0 homeland Birds of Prey (and the Fantabulous Emancipation of One Harley Quinn) 2020 the call of the wild 2020 Gretel and Hansel 2020 The Hunt 2020 outlander The Gentlemen 2019 better call saul s05e08 Trolls World Tour 2020 money heist all rise Westworld s03e02 Underwater 2020 Good Girls S03E08 jumanji the next level 2019 Bull S04E18 Manifest evo tiger king xxx the walking dead rq.mp4 fantasy island 2020 yts sonic the hedgehog 2020 etmovies 1917 2019 ettv Bad Boys for Life 2020 Manifest S02E13 Wwe contagion 2011 Star Wars The Rise of Skywalker 2019 westworld hindi The Walking Dead S10E14 Westworld S03E04 The Walking Dead S10E15 Below Deck Sailing Yacht S01E10 The Blacklist S07E13 Frozen II 2019 The Neighborhood S02E19 onward 2020 The Invisible Man 2020 westworld s03e03 Briarpatch S01E09 dolittle 2020 Last Week Tonight with John Oliver S07E07 Knives Out 2019 Ozark s03e07 All Rise S01E19 Bloodshot 2020 The Voice S18E08 Almost Paradise S01E02 Vivarium 2020 my spy My Spy 2020 The Platform 2019 bull etrg better call saul ddr Survive S01E01 The Rookie S02E16 ethd Homeland S08E09 The Banker 2020 ita ip man 4 
Warning! Use a V.P.N when Downloading Torrents!
Your IP Address is 3.226.243.36. Location is United States
Your Internet Provider is tracking your torrent activity! Hide your IP ADDRESS with a V.P.N!
We strongly recommend using ExpressVP-N to anonymize your torrenting. 30 Day Money Back Guarantee!
Try it Now!
ETTV Recommended TV Shows
The.Plot.Against.America.S01E04.WEBRip.x264-XLF[ettv] torrent
Manifest.S02E13.HDTV.x264-SVA[ettv] torrent
All.Rise.S01E19.HDTV.x264-SVA[ettv] torrent
Roswell.New.Mexico.S02E04.HDTV.x264-SVA[ettv] torrent

ETTV Recommended SD
Trolls.World.Tour.2020.AMZN.HDRip,XViD-ETRG torrent
Like.A.Boss.2020.HDRip.XViD-ETRG torrent
The.Turning.2020.HDRip.XViD-ETRG torrent
Mosley.2019.HDRip.XviD.AC3-EVO torrent

ETTV Recommended HD
Gretel.and.Hansel.2020.1080p.WEB-DL.DD5.1.x264-CMRG[EtHD] torrent
Like.a.Boss.2020.1080p.WEB-DL.DD5.1.x264-CMRG[EtHD] torrent
Gold.Dust.2020.1080p.WEB-DL.H264.AC3-EVO[EtHD] torrent
Mosley.2019.1080p.WEB-DL.H264.AC3-EVO[EtHD] torrent

ETTV Recommended UHD
Dolphin.Reef.2020.UHD.2160p.WebRip.HDR.DDP.5.1.HEVC-DDR.mkv torrent
Hulk.2003.BDRip.2160p.UHD.HDR.Eng.Fre.DTS-HDMA.ETRG torrent
The.Incredible.Hulk.2008.BDRip.2160p.UHD.HDR.Eng.DTS.ETRG torrent
Stand.by.Me.1986.BDRip.2160p.UHD.HDR.Eng.TrueHD.ETRG torrent

ETTV Recommended Cam
My Spy 2020 HDCAM x264 AC3-ETRG torrent
The Hunt 2020 HDCAM x264 AC3-ETRG torrent
The Burnt Orange Heresy 2020 720p HDCAM-C1NEM4 torrent
Fantasy Island 2020 UNRATED HDTS XViD AC3-ETRG torrent

ETTV Recommended Foreign
Angrezi Medium 2020.1080p.DSNP+.WEB-DL.Hin.AAC.2.0.H265-Telly torrent
Cursed - Il maleficio (2005).720p.H264.ita.eng.Ac3-5.1.sub.ita.eng-MIRCrew torrent
1917 (2019) BRRip 720p [Hindi DD5.1] Dual-Audio x264 - KatmovieHD torrent
Har Kisse Ke Hisse Kaamyaab.2020.1080p.Itunes.WED-DL.DD.5.1.x264-Telly torrent


Download Torrent "18+.2050.2019.HDRip.XviD.AC3"

IMDB Details
Description:

N/A

Genre:

N/A

Download Torrent (Magnet)
Seeds: 130
Leechers: 112
Completed: 354 
Last Checked: 15-01-2020 00:58:06


Loading...
Details
Title:18+.2050.2019.HDRip.XviD.AC3
Description:




******************************Thumbnail:**********************




******************************Screenshots:******************** 

Screenshot 1

Screenshot 2

Screenshot 3

Screenshot 4

Screenshot 5

Screenshot 6

Screenshot 7

Screenshot 8

Screenshot 9

Screenshot 0

********************************************************** 

18+.2050.2019.HDRip.XviD.AC3.mp4
Format                                   : MPEG-4
Format profile                           : Base Media
Codec ID                                 : isom (isom/iso2/avc1/mp41)
File size                                : 1.19 GiB
Duration                                 : 1 h 46 min
Overall bit rate mode                    : Variable
Overall bit rate                         : 1 594 kb/s
Writing application                      : Lavf57.83.100

Video
ID                                       : 1
Format                                   : AVC
Format/Info                              : Advanced Video Codec
Format profile                           : [email protected]
Format settings                          : CABAC / 1 Ref Frames
Format settings, CABAC                   : Yes
Format settings, Reference frames        : 1 frame
Codec ID                                 : avc1
Codec ID/Info                            : Advanced Video Coding
Duration                                 : 1 h 46 min
Bit rate mode                            : Variable
Bit rate                                 : 1 207 kb/s
Maximum bit rate                         : 3 600 kb/s
Width                                    : 720 pixels
Height                                   : 304 pixels
Display aspect ratio                     : 2.35:1
Frame rate mode                          : Constant
Frame rate                               : 23.976 (23976/1000) FPS
Color space                              : YUV
Chroma subsampling                       : 4:2:0
Bit depth                                : 8 bits
Scan type                                : Progressive
Bits/(Pixel*Frame)                       : 0.230
Stream size                              : 921 MiB (76%)
Codec configuration box                  : avcC

Audio
ID                                       : 2
Format                                   : AC-3
Format/Info                              : Audio Coding 3
Commercial name                          : Dolby Digital
Codec ID                                 : ac-3
Duration                                 : 1 h 46 min
Bit rate mode                            : Constant
Bit rate                                 : 384 kb/s
Channel(s)                               : 6 channels
Channel layout                           : L R C LFE Ls Rs
Sampling rate                            : 48.0 kHz
Frame rate                               : 31.250 FPS (1536 SPF)
Compression mode                         : Lossy
Stream size                              : 293 MiB (24%)
Language                                 : English
Service kind                             : Complete Main
Default                                  : Yes
Alternate group                          : 1




********************************************************** 




Category:Movies > XviD
Lang:English  English
Total Size:1.21 GB
Info Hash:4beffebc2d91a64de41315f939cab738ba26ef5f
Added By:LifeLongg
Date Added:15-01-2020 00:57:59

Files

File List: 
 File Size
18+.2050.2019.HDRip.XviD.AC3.mp41.19 GB
SAMPLE.ts18 MB



Comments

There are currently no comments. Be the first one to write something !

Disclaimer: None of the files shown here are actually hosted or transmitted by this server. The links are provided solely by this site's users. The site moderation is also a service provided by the site's users. The administrator of this site (ettv.be) cannot be held responsible for what its users post, or any other actions of its users. You may not use this site to distribute or download any material when you do not have the legal rights to do so. It is your own responsibility to adhere to these terms.