Becky 2020 locke and key s01e06 Blindspot Harley Quinn s02e10 Rick and Morty S04E10 The 100 S07E03 etrg The Walking Dead  The Hunt 2020 dc week SEAL Team Jersey Shore Family Vacation s03e27 Marvels Agents of S.H.I.E.L.D. S07E02 ethd BILLIONS rq.mp4 alex rider Chicago Fire The Last Days of American Crime 2020 13 Reasons Why Season 4 WWE Bering Sea Gold S12E05 Greys Anatomy ita evo Space Force s01e02 Survive the Night 2020 ddr harley quinn Gangs of London S01E07 Marvel Week The Blackout Invasion Earth 2019 killing eve in the dark Birds of Prey (and the Fantabulous Emancipation of One Harley Quinn) 2020 13 Reasons Why S04 XXX game of thrones Last Week Tonight 0 ufc 2160p The Gentlemen 2020 what we do in the shadows ettv Chicago PD Rick and Morty etmovies snowpiercer yts Brazzers Best Of Brazzers Scoob! 2020 love life The Invisible Man 2020 Blindspot S05E04 stargirl Hindi  Real Time with Bill Maher S18E17 Choked the 100 13 Reasons Why Space Force S01E01 Westworld Alex Rider S01E01 legends of tomorrow YTS Bad Boys for Life 2020 Chicago Med hindi 2020 
ETTV Recommended TV Shows
Man.With.a.Plan.S04E12.720p.x265.ETRG torrent
In.the.Dark.2019.S02E08.HDTV.x264-SVA[ettv] torrent
Blindspot.S05E04.HDTV.x264-SVA[ettv] torrent
WWE Friday Night SmackDown 2020 06 05 HDTV x264-NWCHD [TJET] torrent

ETTV Recommended SD
Sniper Assassins End.2020.BDRip.x264.AC3-EVO.ETRG torrent
Hammer.2020.1080p.WEBRip.X264.DD.5.1-EVO.ETRG torrent
Three.Christs.2020.BDRip.x264.AC3-EVO.ETRG torrent
Dating.Amber.2020.1080p.AMZN.WEBRip.X264.DD.5.1-EVO.ETRG torrent

ETTV Recommended HD
The.Last.Days.of.American.Crime.2020.NF.WEB-DL.DDP2.0.x264-CMRG[EtHD] torrent
Shutter.Island.2010.BRRip.1080p.HEVC.HDR.Eng.DD5.1.ETRG torrent
Dating.Amber.2020.1080p.AMZN.WEBRip.X264.DD.5.1-EVO[EtHD] torrent
Annabellum.The.Curse.of.Salem.2019.1080p.WEB-DL.AAC2.0.H.264-CMRG[EtHD] torrent

ETTV Recommended UHD
Suicide.Squad.Hell.to.Pay.2018.MULTi.UHD.BluRay.2160p.HDR.DTS-HDMA.5.1.HEVC-DDR.mkv torrent
The.Shining.1980.BDRip.2160p.UHD.HDR.Eng.DTS-HD.MA.ETRG torrent
Shutter.Island.2010.BDRip.2160p.UHD.HDR.Eng.DTS-HD.MA.ETRG torrent
Birds of Prey (e la fantasmagorica rinascita di Harley Quinn) (2020) [BluRay Rip 2160p HEVC 10bit-HDR ITA-ENG DTS-AC3-SUBS] [M@HD] torrent

ETTV Recommended Cam
The Hunt 2020 HDCAM x264 AC3-ETRG torrent
The Burnt Orange Heresy 2020 720p HDCAM-C1NEM4 torrent

ETTV Recommended Foreign
Sarileru Neekevvaru (2020) [TELUGU - 720p - WEB HDRip - x264 - DD 5.1 - MSub - 2GB] - MAZE torrent
Murder Manual (2020) HDRip 720p [Hindi-Sub] x264 - 1XCinema torrent
Le.Boucher.1970.(Claude.Chabrol-Thriller).720p.x264-Classics torrent
Bheeshma (2020) [TELUGU - 720p - WEB HDRip - x264 - DD 5.1 - MSub - 2GB] - MAZE torrent

AD_BLOCK


Download Torrent "Frozen II 2019.MULTi.UHD.BluRay.2160p.HDR.TrueHD.Atmos.7.1.HEVC.DDR"

IMDB Details
Description:

Anna, Elsa, Kristoff, Olaf and Sven leave Arendelle to travel to an ancient, autumn-bound forest of an enchanted land. They set out to find the origin of Elsa's powers in order to save their kingdom.

Genre:

Animation, Adventure, Comedy, Family, Fantasy, Musical

Download Torrent (Magnet)
Download Torrent (File)
Seeds: 49
Leechers: 73
Completed: 122 
Last Checked: 27-02-2020 15:18:43


Details
Title:Frozen II 2019.MULTi.UHD.BluRay.2160p.HDR.TrueHD.Atmos.7.1.HEVC.DDR
Description:




Format                                   : Matroska
Format version                           : Version 4
File size                                : 19.5 GiB
Duration                                 : 1 h 43 min
Overall bit rate mode                    : Variable
Overall bit rate                         : 27.0 Mb/s
Movie name                               : Frozen II - Ultra HD™
Encoded date                             : UTC 2020-02-27 12:53:09
Writing application                      : mkvmerge v42.0.0 ('Overtime') 64-bit
Writing library                          : libebml v1.3.10 + libmatroska v1.5.2
Cover                                    : Yes
Attachments                              : cover.jpg / cover.jpg / cover.jpg / cover.jpg

Video
ID                                       : 1
Format                                   : HEVC
Format/Info                              : High Efficiency Video Coding
Commercial name                          : HDR10
Format profile                           : Main [email protected]@High
Codec ID                                 : V_MPEGH/ISO/HEVC
Duration                                 : 1 h 43 min
Bit rate                                 : 15.6 Mb/s
Width                                    : 3 840 pixels
Height                                   : 1 608 pixels
Display aspect ratio                     : 2.40:1
Frame rate mode                          : Constant
Frame rate                               : 23.976 (24000/1001) FPS
Color space                              : YUV
Chroma subsampling                       : 4:2:0
Bit depth                                : 10 bits
Bits/(Pixel*Frame)                       : 0.106
Stream size                              : 11.3 GiB (58%)
Language                                 : English
Default                                  : Yes
Forced                                   : No
Color range                              : Limited
Color primaries                          : BT.2020
Transfer characteristics                 : PQ
Matrix coefficients                      : BT.2020 non-constant
Mastering display color primaries        : Display P3
Mastering display luminance              : min: 0.0001 cd/m2, max: 1000 cd/m2

Audio #1
ID                                       : 2
Format                                   : MLP FBA 16-ch
Format/Info                              : Meridian Lossless Packing FBA with 16-channel presentation
Commercial name                          : Dolby TrueHD with Dolby Atmos
Codec ID                                 : A_TRUEHD
Duration                                 : 1 h 43 min
Bit rate mode                            : Variable
Bit rate                                 : 8 449 kb/s
Maximum bit rate                         : 10.6 Mb/s
Channel(s)                               : 8 channels
Channel layout                           : L R C LFE Ls Rs Lb Rb
Sampling rate                            : 48.0 kHz
Frame rate                               : 1 200.000 FPS (40 SPF)
Compression mode                         : Lossless
Stream size                              : 6.09 GiB (31%)
Language                                 : English
Default                                  : Yes
Forced                                   : No
Number of dynamic objects                : 13
Bed channel count                        : 1 channel
Bed channel configuration                : LFE

Audio #2
ID                                       : 3
Format                                   : AC-3
Format/Info                              : Audio Coding 3
Commercial name                          : Dolby Digital
Codec ID                                 : A_AC3
Duration                                 : 1 h 43 min
Bit rate mode                            : Constant
Bit rate                                 : 640 kb/s
Channel(s)                               : 6 channels
Channel layout                           : L R C LFE Ls Rs
Sampling rate                            : 48.0 kHz
Frame rate                               : 31.250 FPS (1536 SPF)
Bit depth                                : 16 bits
Compression mode                         : Lossy
Stream size                              : 473 MiB (2%)
Language                                 : English
Service kind                             : Complete Main
Default                                  : No
Forced                                   : No

Audio #3
ID                                       : 4
Format                                   : E-AC-3
Format/Info                              : Enhanced AC-3
Commercial name                          : Dolby Digital Plus
Format profile                           : Blu-ray Disc
Codec ID                                 : A_EAC3
Duration                                 : 1 h 43 min
Bit rate mode                            : Constant
Bit rate                                 : 1 024 kb/s
Channel(s)                               : 8 channels
Channel layout                           : L R C LFE Ls Rs Lb Rb
Sampling rate                            : 48.0 kHz
Frame rate                               : 31.250 FPS (1536 SPF)
Compression mode                         : Lossy
Stream size                              : 756 MiB (4%)
Language                                 : French
Service kind                             : Complete Main
Default                                  : No
Forced                                   : No

Audio #4
ID                                       : 5
Format                                   : E-AC-3
Format/Info                              : Enhanced AC-3
Commercial name                          : Dolby Digital Plus
Format profile                           : Blu-ray Disc
Codec ID                                 : A_EAC3
Duration                                 : 1 h 43 min
Bit rate mode                            : Constant
Bit rate                                 : 1 024 kb/s
Channel(s)                               : 8 channels
Channel layout                           : L R C LFE Ls Rs Lb Rb
Sampling rate                            : 48.0 kHz
Frame rate                               : 31.250 FPS (1536 SPF)
Compression mode                         : Lossy
Stream size                              : 756 MiB (4%)
Language                                 : Spanish
Service kind                             : Complete Main
Default                                  : No
Forced                                   : No

Text #1
ID                                       : 6
Format                                   : PGS
Muxing mode                              : zlib
Codec ID                                 : S_HDMV/PGS
Codec ID/Info                            : Picture based subtitle format used on BDs/HD-DVDs
Duration                                 : 1 h 43 min
Bit rate                                 : 44.1 kb/s
Count of elements                        : 3878
Stream size                              : 32.5 MiB (0%)
Language                                 : English
Default                                  : Yes
Forced                                   : No

Text #2
ID                                       : 7
Format                                   : PGS
Muxing mode                              : zlib
Codec ID                                 : S_HDMV/PGS
Codec ID/Info                            : Picture based subtitle format used on BDs/HD-DVDs
Duration                                 : 1 h 42 min
Bit rate                                 : 32.5 kb/s
Count of elements                        : 2704
Stream size                              : 23.8 MiB (0%)
Language                                 : French
Default                                  : No
Forced                                   : No

Text #3
ID                                       : 8
Format                                   : PGS
Muxing mode                              : zlib
Codec ID                                 : S_HDMV/PGS
Codec ID/Info                            : Picture based subtitle format used on BDs/HD-DVDs
Duration                                 : 1 h 42 min
Bit rate                                 : 32.0 kb/s
Count of elements                        : 2628
Stream size                              : 23.4 MiB (0%)
Language                                 : Spanish
Default                                  : No
Forced                                   : No

Text #4
ID                                       : 9
Format                                   : PGS
Muxing mode                              : zlib
Codec ID                                 : S_HDMV/PGS
Codec ID/Info                            : Picture based subtitle format used on BDs/HD-DVDs
Duration                                 : 1 h 42 min
Bit rate                                 : 24.2 kb/s
Count of elements                        : 2529
Stream size                              : 17.7 MiB (0%)
Language                                 : Japanese
Default                                  : No
Forced                                   : No

Text #5
ID                                       : 10
Format                                   : PGS
Muxing mode                              : zlib
Codec ID                                 : S_HDMV/PGS
Codec ID/Info                            : Picture based subtitle format used on BDs/HD-DVDs
Duration                                 : 1 h 39 min
Bit rate                                 : 131 kb/s
Count of elements                        : 2254
Stream size                              : 92.7 MiB (0%)
Language                                 : English
Default                                  : No
Forced                                   : No

Text #6
ID                                       : 11
Format                                   : PGS
Muxing mode                              : zlib
Codec ID                                 : S_HDMV/PGS
Codec ID/Info                            : Picture based subtitle format used on BDs/HD-DVDs
Duration                                 : 1 h 37 min
Bit rate                                 : 39.1 kb/s
Count of elements                        : 1778
Stream size                              : 27.2 MiB (0%)
Language                                 : French
Default                                  : No
Forced                                   : No

Text #7
ID                                       : 12
Format                                   : PGS
Muxing mode                              : zlib
Codec ID                                 : S_HDMV/PGS
Codec ID/Info                            : Picture based subtitle format used on BDs/HD-DVDs
Duration                                 : 1 h 37 min
Bit rate                                 : 31.0 kb/s
Count of elements                        : 1687
Stream size                              : 21.5 MiB (0%)
Language                                 : Spanish
Default                                  : No
Forced                                   : No

Text #8
ID                                       : 13
Format                                   : PGS
Muxing mode                              : zlib
Codec ID                                 : S_HDMV/PGS
Codec ID/Info                            : Picture based subtitle format used on BDs/HD-DVDs
Duration                                 : 1 h 37 min
Bit rate                                 : 32.7 kb/s
Count of elements                        : 820
Stream size                              : 22.7 MiB (0%)
Language                                 : Japanese





[email protected]

Category:Movies > UltraHD/4K
Lang:English  English
Total Size:19.48 GB
Info Hash:f76173ba3bbdb1a7be41d82f62f1d3540cb39b99
Added By:DDR
Date Added:27-02-2020 15:18:34

  

Files

File List: 
 File Size
0A DDR Release !!!.txt287.00 B
0Torrent downloaded from Desitorrents.tv.txt28.00 B
Frozen.II.2019.MULTi.UHD.BluRay.2160p.HDR.TrueHD.Atmos.7.1.HEVC.DDR.mkv19.48 GB



Comments

There are currently no comments. Be the first one to write something !

Disclaimer: None of the files shown here are actually hosted or transmitted by this server. The links are provided solely by this site's users. The site moderation is also a service provided by the site's users. The administrator of this site (ettv.be) cannot be held responsible for what its users post, or any other actions of its users. You may not use this site to distribute or download any material when you do not have the legal rights to do so. It is your own responsibility to adhere to these terms.