etmovies Sonic the Hedgehog 2020 Space Force s01e07 Scoob! 2020 Space Force S01E01 in the dark ita the flash  etrg Siren S03E10 ettv Space Force s01e09 Space Force s01e05 agents of shield Billions 2160p Marvels Agents of S.H.I.E.L.D. S07E01 what we do in the shadows Siren Space Force s01e06 killing eve Jersey Shore Family Vacation s03e26 Snowpiercer Capone 2020 ethd The Wrong Missy 2020 Bad Boys for Life 2020 wwe evo stargirl THE 100 ddr hindi 2020 SEAL Team  defending jacob Space Force s01e08 Birds of Prey (and the Fantabulous Emancipation of One Harley Quinn) 2020 Space Force s01e03 Locke  The High Note 2020 supergirl Brazzers Best Of Brazzers Space Force s01e04 Legends of Tomorrow Inheritance 2020 Bering Sea Gold S12E03 HINDI Joker 2019 Survive the Night 2020 RuPauls Drag Race S12E14 blindspot Gangs of London s01e06 The 100 S07E02 yts rick and morty westworld Space Force bloodshot 2020 defending jacob s01e08 the walking dead 0 Extraction 2020 harley quinn Blindspot S05E03 Space Force S01E02 rq.mp4 xxx dc week 
ETTV Recommended TV Shows
Man.With.a.Plan.S04E11.HDTV.x264-SVA[ettv] torrent
Siren.2018.S03E10.WEB.H264-BTX[ettv] torrent
In.the.Dark.2019.S02E07.HDTV.x264-SVA.ETRG torrent
Blindspot.S05E03.HDTV.x264-SVA.ETRG torrent

ETTV Recommended SD
The.Hunt.2020.BDRip.XviD.AC3-EVO torrent
The.Vast.Of.Night.2020.HDRip.XviD.AC3-EVO torrent
A.Good.Woman.Is.Hard.To.Find.2019.BRRip.XviD.AC3-EVO torrent
Gabriels Inferno.2020.HDRip.XviD.AC3-EVO torrent

ETTV Recommended HD
Code.of.Thieves.2020.1080p.AMZN.WEB-DL.DDP2.0.H.264-CMRG[EtHD] torrent
Gabriels.Inferno.2020.1080p.WEB-DL.X264.AC3-EVO[EtHD] torrent
The Blackout 2019 BluRay 1080p DTSHD 5.1 x264-LEGi0N[EtHD] torrent
Spider.Man.Homecoming.2017.BRRip.1080P.HEVC.HDR.Eng.DD5.1.ETRG torrent

ETTV Recommended UHD
Snitch 2013.MULTi.UHD.Blu-ray.2160p.HDR.Atmos.7.1.HEVC-DDR.mkv torrent
Superman.Red.Son.2020.UHD.BluRay.2160p.HDR.DTS-HDMA.5.1.HEVC-DDR.mkv torrent
The.Vast.of.Night.2019.UHD.2160p.HDR.WebRip.DDP.5.1.HEVC-DDR.mkv torrent
Spider.Man.Homecoming.2017.BDRip.2160P.UHD.HDR.Eng.TrueHD.ETRG torrent

ETTV Recommended Cam
The Hunt 2020 HDCAM x264 AC3-ETRG torrent
The Burnt Orange Heresy 2020 720p HDCAM-C1NEM4 torrent

ETTV Recommended Foreign
Scoob! (2020) HDRip 720p [Hindi-Dub] Dual-Audio x264 - 1XCinema torrent
Julie 2 (2017) Hindi - 1080p UNTOUCHED ZEE5-DL - AVC - AAC 2.0 - Sun George - DrC torrent
Dhoom (2004) Hindi (1080p BluRay x265 HEVC 10bit AAC 5.1 ESub) - [Musafirboy] torrent
Proximity (2020) 1080p WEBRp Dual Audio [Hindi Dubbed (Unofficial VO) + English (ORG)] CineVood torrent

AD_BLOCK


Download Torrent "The.Grand.Grandmaster.2020.CHINESE.1080p.BluRay.HEVC.TrueHD.5.1-DDR.mkv"

IMDB Details
Description:

His unexpected romantic feelings towards his rival, Chun, derails Grandmaster Fei Lung's plan to win in the final fight he has challenged her to.

Genre:

Action, Drama

Download Torrent (Magnet)
Download Torrent (File)
Seeds: 18
Leechers: 25
Completed: 33 
Last Checked: 23-05-2020 00:27:14


Details
Title:The.Grand.Grandmaster.2020.CHINESE.1080p.BluRay.HEVC.TrueHD.5.1-DDR.mkv
Description:









Format                                   : Matroska
Format version                           : Version 4
File size                                : 8.49 GiB
Duration                                 : 1 h 57 min
Overall bit rate mode                    : Variable
Overall bit rate                         : 10.3 Mb/s
Encoded date                             : UTC 2020-05-22 21:42:30
Writing application                      : mkvmerge v45.0.0 ('Heaven in Pennies') 64-bit
Writing library                          : libebml v1.3.10 + libmatroska v1.5.2

Video
ID                                       : 1
Format                                   : HEVC
Format/Info                              : High Efficiency Video Coding
Format profile                           : Main [email protected]@High
Codec ID                                 : V_MPEGH/ISO/HEVC
Duration                                 : 1 h 57 min
Bit rate                                 : 6 065 kb/s
Width                                    : 1 920 pixels
Height                                   : 816 pixels
Display aspect ratio                     : 2.35:1
Frame rate mode                          : Constant
Frame rate                               : 24.000 FPS
Color space                              : YUV
Chroma subsampling                       : 4:2:0
Bit depth                                : 10 bits
Bits/(Pixel*Frame)                       : 0.161
Stream size                              : 4.98 GiB (59%)
Language                                 : English
Default                                  : Yes
Forced                                   : No
Color range                              : Limited
Color primaries                          : BT.709
Transfer characteristics                 : BT.709
Matrix coefficients                      : BT.709

Audio #1
ID                                       : 2
Format                                   : MLP FBA
Format/Info                              : Meridian Lossless Packing FBA
Commercial name                          : Dolby TrueHD
Codec ID                                 : A_TRUEHD
Duration                                 : 1 h 57 min
Bit rate mode                            : Variable
Bit rate                                 : 2 903 kb/s
Maximum bit rate                         : 4 362 kb/s
Channel(s)                               : 6 channels
Channel layout                           : L R C LFE Ls Rs
Sampling rate                            : 96.0 kHz
Frame rate                               : 1 200.000 FPS (80 SPF)
Compression mode                         : Lossless
Stream size                              : 2.38 GiB (28%)
Language                                 : Chinese
Default                                  : Yes
Forced                                   : No

Audio #2
ID                                       : 3
Format                                   : AC-3
Format/Info                              : Audio Coding 3
Commercial name                          : Dolby Digital
Codec ID                                 : A_AC3
Duration                                 : 1 h 57 min
Bit rate mode                            : Constant
Bit rate                                 : 640 kb/s
Channel(s)                               : 6 channels
Channel layout                           : L R C LFE Ls Rs
Sampling rate                            : 48.0 kHz
Frame rate                               : 31.250 FPS (1536 SPF)
Bit depth                                : 16 bits
Compression mode                         : Lossy
Stream size                              : 538 MiB (6%)
Language                                 : Chinese
Service kind                             : Complete Main
Default                                  : No
Forced                                   : No

Audio #3
ID                                       : 4
Format                                   : AC-3
Format/Info                              : Audio Coding 3
Commercial name                          : Dolby Digital
Codec ID                                 : A_AC3
Duration                                 : 1 h 57 min
Bit rate mode                            : Constant
Bit rate                                 : 640 kb/s
Channel(s)                               : 6 channels
Channel layout                           : L R C LFE Ls Rs
Sampling rate                            : 48.0 kHz
Frame rate                               : 31.250 FPS (1536 SPF)
Bit depth                                : 16 bits
Compression mode                         : Lossy
Stream size                              : 538 MiB (6%)
Language                                 : Chinese
Service kind                             : Complete Main
Default                                  : No
Forced                                   : No

Text #1
ID                                       : 5
Format                                   : PGS
Muxing mode                              : zlib
Codec ID                                 : S_HDMV/PGS
Codec ID/Info                            : Picture based subtitle format used on BDs/HD-DVDs
Duration                                 : 1 h 56 min
Bit rate                                 : 31.0 kb/s
Count of elements                        : 2676
Stream size                              : 25.8 MiB (0%)
Language                                 : Chinese
Default                                  : Yes
Forced                                   : No

Text #2
ID                                       : 6
Format                                   : PGS
Muxing mode                              : zlib
Codec ID                                 : S_HDMV/PGS
Codec ID/Info                            : Picture based subtitle format used on BDs/HD-DVDs
Duration                                 : 1 h 56 min
Bit rate                                 : 31.2 kb/s
Count of elements                        : 2676
Stream size                              : 26.0 MiB (0%)
Language                                 : English

MikeKhan /Desitorrents.tv
Category:Movies > HD 1080p
Lang:Chinese  Chinese
Total Size:8.49 GB
Info Hash:91218d54d692d411880b5da7304aa551627f2ca4
Added By:DDR
Date Added:23-05-2020 00:27:13

  

Files

File List: 
 File Size
The.Grand.Grandmaster.2020.CHINESE.1080p.BluRay.HEVC.TrueHD.5.1-DDR.mkv8.49 GB



Comments

There are currently no comments. Be the first one to write something !

Disclaimer: None of the files shown here are actually hosted or transmitted by this server. The links are provided solely by this site's users. The site moderation is also a service provided by the site's users. The administrator of this site (ettv.be) cannot be held responsible for what its users post, or any other actions of its users. You may not use this site to distribute or download any material when you do not have the legal rights to do so. It is your own responsibility to adhere to these terms.