Scoob! 2020 the 100 Blue Bloods s00e02 stargirl s01e03 yts The Wrong Missy 2020 BILLIONS 2160p Killing Eve S03E08 stargirl Almost Paradise S01E10 etrg defending jacob the 100 s07e02 space force birds of prey (and the fantabulous emancipation of one harley quinn) 2020 Penny Dreadful City of Angels S01E06 Brazzers Best Of Brazzers killing eve i know this much is true ethd Hindi 2020 90 Day Fiance Before The 90 Days s04e15 Space Force s01e02 Xxx arrow español ettv Legends of Tomorrow Harley quinn rq.mp4 penny dreadful Rick and Morty S04E09 Space Force S01E03 Snowpiercer S01E03 minx Last Week Tonight with John Oliver S07E13 Hightown S01E03 Last Week Tonight ddr american dad Wwe outlander Space Force s01e04 rick and morty seal team Rick and Morty S04E10 westworld dc week Barkskins S01E03 hindi Billions S05E05 chicago fire ufc devils Locke  Survive the Night 2020 blindspot almost paradise evo Snowpiercer  Defending Jacob S01E08 Marvels Agents of S.H.I.E.L.D. S07E01 Law and Order SVU Space Force s01e01 The Hunt 2020 etmovies ITA big bang theory español 
ETTV Recommended TV Shows
Stargirl.S01E03.1080p.WEB.H264-BTX[ettv] torrent
American.Dad.S16E08.HDTV.x264-SVA[ettv] torrent
Roswell.New.Mexico.S02E11.HDTV.x264-SVA[ettv] torrent
Almost.Paradise.S01E10.WEB.h264-TRUMP[ettv] torrent

ETTV Recommended SD
A.Clear.Shot.2020.HDRip.XviD.AC3-EVO torrent
The.Will.2020.HDRip.XviD.AC3-EVO torrent
Hang.Time.2019.HDRip.XviD.AC3-EVO torrent
Bernie.The.Dolphin.2.2019.BDRip.XviD.AC3-EVO torrent

ETTV Recommended HD
The.Will.2020.1080p.AMZN.WEBRip.X264.DD.2.0-EVO[EtHD] torrent
No.Apology.2020.1080p.WEBRip.X264.DD.5.1-EVO[EtHD] torrent
Hang.Time.2019.1080p.WEB-DL.H264.AC3-EVO[EtHD] torrent
A.Clear.Shot.2019.AMZN.WEB-DL.DDP5.1.H.264-CMRG[EtHD] torrent

ETTV Recommended UHD
First.reformed.2017.UHD.2160p.HDR.WebRip.DDP.5.1.HEVC-DDR.mkv torrent
Rush.2013.MULTi.UHD.2160p.HDR.DTS-HDMA.5.1.HEVC-DDR.mkv torrent
Thor.Ragnarok.2017.BDRip.2160P.UHD.HDR.Eng.TrueHD.ETRG torrent
Air.Force.One.1997.BDRip.2160.UHD.HDR.Eng.TrueHD.ETRG torrent

ETTV Recommended Cam
The Hunt 2020 HDCAM x264 AC3-ETRG torrent
The Burnt Orange Heresy 2020 720p HDCAM-C1NEM4 torrent

ETTV Recommended Foreign
Naan Mahaan Alla.2010.Blu-ray.1080p.DTS.5.1.HEVC.[fixed]-DDR.mkv torrent
Ne.Zha.2019.MULTi.UHD.BluRay.2160p.HEVC.Atmos.TrueHD.7.1-DDR.mkv torrent
Happi (2015) Hindi - 1080p UNTOUCHED ZEE5-DL - AVC - AAC 2.0 - Sun George - DrC - 13 Aniversary Release torrent
122 2019 1080p NF WEBRip Hindi Arabic x264 DD 5.1 ESubs - LOKiHD - Telly torrent

AD_BLOCK


Download Torrent "The 100 S07E01 From the Ashes 1080p AMZN WEBrip x265 DDP5.1 D0ct0rLew[SEV]"

IMDB Details
Description:

Set ninety-seven years after a nuclear war has destroyed civilization, when a spaceship housing humanity's lone survivors sends one hundred juvenile delinquents back to Earth, in hopes of possibly re-populating the planet.

Genre:

Drama, Mystery, Sci-Fi

Download Torrent (Magnet)
Download Torrent (File)
Seeds: 164
Leechers: 121
Completed: 667 
Last Checked: 23-05-2020 14:09:22


Details
Title:The 100 S07E01 From the Ashes 1080p AMZN WEBrip x265 DDP5.1 D0ct0rLew[SEV]
Description:





Media Information

Unique ID                                : 219128540320245085794378655519769941092 (0xA4DA9F2AD41F2738AEBD7A749068D464)
Complete name                            : The 100 S07E01 From the Ashes 1080p AMZN WEBrip x265 DDP5.1 D0ct0rLew[SEV].mkv
Format                                   : Matroska
Format version                           : Version 4
File size                                : 1.28 GiB
Duration                                 : 42 min 18 s
Overall bit rate                         : 4 344 kb/s
Movie name                               : The 100 S07E01 From the Ashes 1080p AMZN WEBrip x265 DDP5.1 D0ct0rLew[SEV]
Encoded date                             : UTC 2020-05-23 12:05:36
Writing application                      : mkvmerge v17.0.0 ('Be Ur Friend') 64-bit
Writing library                          : libebml v1.3.5 + libmatroska v1.4.8

Video
ID                                       : 1
Format                                   : HEVC
Format/Info                              : High Efficiency Video Coding
Format profile                           : Main [email protected]@Main
Codec ID                                 : V_MPEGH/ISO/HEVC
Duration                                 : 42 min 18 s
Bit rate                                 : 3 703 kb/s
Width                                    : 1 920 pixels
Height                                   : 1 080 pixels
Display aspect ratio                     : 16:9
Frame rate mode                          : Constant
Frame rate                               : 23.976 (24000/1001) FPS
Color space                              : YUV
Chroma subsampling                       : 4:2:0
Bit depth                                : 10 bits
Bits/(Pixel*Frame)                       : 0.074
Stream size                              : 1.09 GiB (85%)
Writing library                          : x265 3.3+27-g4780a8d99:[Windows][GCC 11.0.0][64 bit] 10bit
Encoding settings                        : cpuid=1049583 / frame-threads=3 / numa-pools=8 / wpp / no-pmode / no-pme / no-psnr / no-ssim / log-level=2 / input-csp=1 / input-res=1920x1080 / interlace=0 / total-frames=1440 / level-idc=0 / high-tier=1 / uhd-bd=0 / ref=4 / no-allow-non-conformance / no-repeat-headers / annexb / no-aud / no-hrd / info / hash=0 / no-temporal-layers / open-gop / min-keyint=24 / keyint=240 / gop-lookahead=0 / bframes=16 / b-adapt=2 / b-pyramid / bframe-bias=0 / rc-lookahead=90 / lookahead-slices=4 / scenecut=40 / hist-scenecut=0 / radl=0 / no-splice / no-intra-refresh / ctu=64 / min-cu-size=8 / no-rect / no-amp / max-tu-size=32 / tu-inter-depth=4 / tu-intra-depth=4 / limit-tu=0 / rdoq-level=2 / dynamic-rd=0.00 / no-ssim-rd / signhide / no-tskip / nr-intra=0 / nr-inter=0 / no-constrained-intra / no-strong-intra-smoothing / max-merge=3 / limit-refs=3 / limit-modes / me=3 / subme=7 / merange=92 / temporal-mvp / no-frame-dup / no-hme / weightp / no-weightb / no-analyze-src-pics / deblock=0:0 / sao / no-sao-non-deblock / rd=4 / selective-sao=4 / no-early-skip / rskip / no-fast-intra / no-tskip-fast / no-cu-lossless / no-b-intra / no-splitrd-skip / rdpenalty=0 / psy-rd=1.10 / psy-rdoq=1.00 / no-rd-refine / no-lossless / cbqpoffs=0 / crqpoffs=0 / rc=crf / crf=19.5 / qcomp=0.60 / qpstep=4 / stats-write=0 / stats-read=0 / ipratio=1.40 / pbratio=1.30 / aq-mode=4 / aq-strength=1.00 / cutree / zone-count=0 / no-strict-cbr / qg-size=32 / no-rc-grain / qpmax=69 / qpmin=0 / no-const-vbv / sar=1 / overscan=0 / videoformat=5 / range=0 / colorprim=2 / transfer=2 / colormatrix=2 / chromaloc=0 / display-window=0 / cll=0,0 / min-luma=0 / max-luma=1023 / log2-max-poc-lsb=8 / vui-timing-info / vui-hrd-info / slices=1 / no-opt-qp-pps / no-opt-ref-list-length-pps / no-multi-pass-opt-rps / scenecut-bias=0.05 / hist-threshold=0.01 / no-opt-cu-delta-qp / no-aq-motion / no-hdr10 / no-hdr10-opt / no-dhdr10-opt / no-idr-recovery-sei / analysis-reuse-level=0 / analysis-save-reuse-level=0 / analysis-load-reuse-level=0 / scale-factor=0 / refine-intra=0 / refine-inter=0 / refine-mv=1 / refine-ctu-distortion=0 / no-limit-sao / ctu-info=0 / no-lowpass-dct / refine-analysis-type=0 / copy-pic=1 / max-ausize-factor=1.0 / no-dynamic-refine / no-single-sei / no-hevc-aq / no-svt / no-field / qp-adaptation-range=1.00 / no-scenecut-aware-qpconformance-window-offsets / right=0 / bottom=0 / decoder-max-rate=0
Default                                  : Yes
Forced                                   : No

Audio
ID                                       : 2
Format                                   : E-AC-3
Format/Info                              : Enhanced AC-3
Commercial name                          : Dolby Digital Plus
Codec ID                                 : A_EAC3
Duration                                 : 42 min 18 s
Bit rate mode                            : Constant
Bit rate                                 : 640 kb/s
Channel(s)                               : 6 channels
Channel layout                           : L R C LFE Ls Rs
Sampling rate                            : 48.0 kHz
Frame rate                               : 31.250 FPS (1536 SPF)
Compression mode                         : Lossy
Stream size                              : 194 MiB (15%)
Language                                 : English
Service kind                             : Complete Main
Default                                  : Yes
Forced                                   : No

Text
ID                                       : 3
Format                                   : UTF-8
Codec ID                                 : S_TEXT/UTF8
Codec ID/Info                            : UTF-8 Plain Text
Duration                                 : 41 min 17 s
Bit rate                                 : 64 b/s
Count of elements                        : 741
Stream size                              : 19.6 KiB (0%)
Title                                    : SDH
Language                                 : English
Default                                  : No
Forced                                   : No

We have no issue with individuals posting or re-uploading our torrents on a platform we aren't on. However, if this is something you'd like to do, please do so in a 'as-is' format. We ask that you do not create a new torrent, include all descriptions you see above including the SEV logo, tags, notes and screenshots.
If you'd like to become a permanent poster on a website we don't post to, feel free to get in contact with a Sublime Encoded Video member.

We are recruiting/training new members for SEV & seedbox providers as well as people to help out with subtitles.
As you already know, we deliver quality, so you know the standard.
If you're interested, feel free to contact any of the team members.

Category:TV > HEVC/x265
Lang:English  English
Total Size:1.28 GB
Info Hash:56422fb2233e4dbfe6082e34bfcd39a8feb34575
Added By:D0ct0rLew
Date Added:23-05-2020 14:09:22

  

Files

File List: 
 File Size
Contact SEV.txt1.03 kB
The 100 S07E01 From the Ashes 1080p AMZN WEBrip x265 DDP5.1 D0ct0rLew[SEV].mkv1.28 GB



Comments

There are currently no comments. Be the first one to write something !

Disclaimer: None of the files shown here are actually hosted or transmitted by this server. The links are provided solely by this site's users. The site moderation is also a service provided by the site's users. The administrator of this site (ettv.be) cannot be held responsible for what its users post, or any other actions of its users. You may not use this site to distribute or download any material when you do not have the legal rights to do so. It is your own responsibility to adhere to these terms.