Birds of Prey (and the Fantabulous Emancipation of One Harley Quinn) 2020 Marvels Agents of S H I E L D S07E01 XXX supergirl Jeffrey Epstein Filthy Rich s01e01 The Lovebirds 2020 What We Do in the Shadows S02E08 mrs america etrg Billions grant aew Marvels Agents of S.H.I.E.L.D. S07E01 Bad Boys for Life 2020 evo Billions S05E04 defending jacob rick and morty yts love life Stargirl s01e02 transplant agents ethd The Wrong Missy 2020 Survive the Night 2020 Rick and Morty S04E09 Raktanchal Barkskins s01e01 Capone 2020 Blindspot Snowpiercer S01E02 killing eve DDR Grant S01E02 nascar legends of tomorrow what we do in the shadows hindi 2160p Killing Eve S03E07 Scoob! 2020 rq.mp4 the walking dead agents of shield outlander ettv Brazzers Best Of Brazzers etmovies snowpiercer WWE  The Real Housewives of Beverly Hills S10E07 Americas Got Talent S15E01 The 100 S07E02 Locke  the flash Inheritance 2020 ddr stargirl American dad Grant S01E01 marvel week hindi 2020 See.S01E04.WEB.x264-PHOENiX[TGx] the 100 DCs Legends of Tomorrow S05E14 0 the good fight DC week 
ETTV Recommended TV Shows
The.Good.Fight.S04E07.720p.WEB.H265.ETRG torrent
Man.With.a.Plan.S04E11.HDTV.x264-SVA[ettv] torrent
Council.of.Dads.S01E05.HDTV.x264-SVA[ettv] torrent
Siren.2018.S03E10.WEB.H264-BTX[ettv] torrent

ETTV Recommended SD
Guest.Of.Honour.2020.HC.HDRip.XviD.AC3-EVO torrent
I.See.You.2019.BRRip.XviD.AC3-EVO torrent
100.Percent.Wolf.2020.HDRip.XviD.AC3-EVO torrent
Murder.Manual.2020.HDRip.XviD.AC3-EVO torrent

ETTV Recommended HD
Murder.Manual.1080p.AMZN.WEB-DL.DDP2.0.H.264-CMRG[EtHD] torrent
7500.2020.1080p.WEB-DL.H264.AC3-EVO[EtHD] torrent
The.High.Note.2020.1080p.WEB-DL.H264.AC3-EVO[EtHD] torrent
The.Vast.Of.Night.2020.1080p.AMZN.WEB-DL.H264.DDP.5.1-EVO[EtHD] torrent

ETTV Recommended UHD
The.Wrong.Missy.2020.UHD.MULTI.2160p.HDR.WEBRip.DDP.5.1.HEVC-DDR[EtHD] torrent
Queen & Slim (2019) [BluRay Rip 2160p HEVC 10bit-HDR ITA-ENG DTS-AC3-SUBS] [M@HD] torrent
1917.2019.HDR10Plus.2160p.UHD.BluRay.x265.iNTERNAL-JustWatch.ETRG torrent
Dolittle.2020.HDR10Plus.2160p.UHD.BluRay.x265.iNTERNAL-JustWatch.ETRG torrent

ETTV Recommended Cam
The Hunt 2020 HDCAM x264 AC3-ETRG torrent
The Burnt Orange Heresy 2020 720p HDCAM-C1NEM4 torrent

ETTV Recommended Foreign
After(2019) HDRip 720p [Hindi-Dub] Dual-Audio x264 - 1XCinema torrent
Door.Ke.Darshan.2020.1080p.S.M.WEB-DL.AAC.2.0.H.264-Telly torrent
Ponmagal.Vandhal.2020.1080p.AMZN.WEB-DL.DD+5.1.x265-Telly torrent
Allagash (2020) HDRip 720p [Hindi-Dub] Dual-Audio x264 - 1XCinema torrent

AD_BLOCK


Download Torrent "Topiwala (2020) Hindi Dubbed 720p WEB-DL x264 AAC 850MB - MovCr"

IMDB Details
Description:

N/A

Genre:

N/A

Download Torrent (Magnet)
Download Torrent (File)
Seeds: 267
Leechers: 172
Completed: 267 
Last Checked: 23-05-2020 14:40:31


Details
Title:Topiwala (2020) Hindi Dubbed 720p WEB-DL x264 AAC 850MB - MovCr
Description:
[b/]https://MovCr.to[/b]

[b]
[/b]







Topiwala (2020) Hindi Dubbed 720p WEB-DL x264 AAC 850MB - MovCr

[b][/b]



IMDB Link : [b]https://www.imdb.com/title/tt3006476/[/b]

Plot :

This movie is about a set of honest people like Basak (Upendra) and others who fight against corrupt politicians who have huge amounts of black money. They've their bank account at Swiss Bank. So in order to sue them and make the whole nation know their fraud, Basak and team fight with them. But unfortunately, a layman helps those politicians and the politicians win, taking away the money. Though Basak and team loses, they tell the layman (and the general public) that they're the ones who have the power to change, sue those having black money.



Video
ID                                       : 1
Format                                   : AVC
Format/Info                              : Advanced Video Codec
Format profile                           : [email protected]
Format settings                          : CABAC / 3 Ref Frames
Format settings, CABAC                   : Yes
Format settings, Reference frames        : 3 frames
Codec ID                                 : V_MPEG4/ISO/AVC
Duration                                 : 1 h 58 min
Bit rate                                 : 917 kb/s
Width                                    : 1 280 pixels
Height                                   : 720 pixels
Display aspect ratio                     : 16:9
Frame rate mode                          : Constant
Frame rate                               : 25.000 FPS
Color space                              : YUV
Chroma subsampling                       : 4:2:0
Bit depth                                : 8 bits
Scan type                                : Progressive
Bits/(Pixel*Frame)                       : 0.040
Stream size                              : 776 MiB (88%)
Title                                    : www.MovCr.to
Writing library                          : x264 core 155 r2901 7d0ff22
Language                                 : Hindi
Default                                  : Yes
Forced                                   : No
Color range                              : Limited
Color primaries                          : BT.709
Transfer characteristics                 : BT.709
Matrix coefficients                      : BT.709

Audio
ID                                       : 2
Format                                   : AAC LC
Format/Info                              : Advanced Audio Codec Low Complexity
Codec ID                                 : A_AAC-2
Duration                                 : 1 h 58 min
Bit rate                                 : 128 kb/s
Channel(s)                               : 2 channels
Channel layout                           : L R
Sampling rate                            : 44.1 kHz
Frame rate                               : 43.066 FPS (1024 SPF)
Compression mode                         : Lossy
Stream size                              : 108 MiB (12%)
Language                                 : Hindi
Default                                  : Yes
Forced                                   : No




[b][/b]
[b][/b]
[b][/b]
[b][/b]
[b][/b]
[b][/b]
[b][/b]
[b][/b]

Category:Movies > Dubs/Dual Audio
Lang:Hindi  Hindi
Total Size:887 MB
Info Hash:0914814459e54e995435c611b086f93ba051a4c8
Added By:MovCr
Date Added:23-05-2020 14:40:30

  

Files

File List: 
 File Size
www.MovCr.to - Topiwala (2020) Hindi Dubbed 720p WEB-DL x264 AAC 850MB - MovCr.mkv887 MB



Comments

There are currently no comments. Be the first one to write something !

Disclaimer: None of the files shown here are actually hosted or transmitted by this server. The links are provided solely by this site's users. The site moderation is also a service provided by the site's users. The administrator of this site (ettv.be) cannot be held responsible for what its users post, or any other actions of its users. You may not use this site to distribute or download any material when you do not have the legal rights to do so. It is your own responsibility to adhere to these terms.