The Outpost 2020 Yellowstone S03E04 Hightown  Palm Springs 2020 Scoob! 2020 rq.mp4 UFC Perry mason P-Valley S01E01 The 100 S07E08 njpw Relic 2020 dark  Invasion 2020 DC week Doom Patrol s02e05 You Should Have Left 2020 stargirl yts 0 Perry Mason S01E04 snowpiercer THE 100 formula  doom patrol Hightown s01e08 Eurovision Song Contest The Story of Fire Saga 2020 The Gentlemen 2019 Hanna s02e01 indycar Hamilton 2020 Trolls World Tour 2020 Blindspot S05E09 The Chi S03E04 ethd Blindspot Formula 1 2160p Snowpiercer S01E10 Condor Snowpiercer S01E09 Yellowstone S03E03 ettv The Old Guard 2020 Archive 2020 90 Day Fiance Happily Ever After S05E05 Irresistible 2020 Bad Boys for Life 2020 hindi etrg etmovies evo Greyhound 2020 Blindspot S05E10 Marvels Agents of S.H.I.E.L.D. S07E07 Artemis Fowl 2020 Greyhound xxx The Old Guard Stargirl S01E09 ddr Yellowstone Birds of Prey (and the Fantabulous Emancipation of One Harley Quinn) 2020 The King of Staten Island 2020 f1 wwe formula1 ufc 251 Force of Nature 2020 
Warning! Use a VPN When Downloading Torrents!
Your IP Address is 18.206.194.134. Location United States
Your Internet Provider can see when you download torrents! Hide your IP Address with a VPN
ETTV warns: You should use VPN to hide your torrenting. HIDE ME NOW
ETTV Recommended TV Shows
Snowpiercer.S01E09.720p.WEB.H264-METCON[ettv] torrent
Snowpiercer.S01E10.720p.WEB.H264-METCON[ettv] torrent
Yellowstone.2018.S03E04.1080p.HEVC.x265.MeGusta.ETRG torrent
Stargirl.S01E09.480p.x264.mSD.ETRG torrent

ETTV Recommended SD
Latte.And.The.Magic.Waterstone.2020.HDRip.XviD.AC3-EVO[EtMovies] torrent
Arthur.And.Merlin.Knights.Of.Camelot.2020.HDRip.XviD.AC3.EVO.ETRG torrent
Kat.And.The.Band.2020.HDRip.XviD.AC3.EVO.ETRG torrent
Masters.Of.Love.2020.HDRip.XviD.AC3.EVO.ETRG torrent

ETTV Recommended HD
Spectre 2015 BluRay 1080p AC3 x264-3Li torrent
Masters.Of.Love.2020.1080p.WEB-DL.H264.AC3.EVO.ETRG torrent
Kat.And.The.Band.2020.1080p.WEB-DL.H264.AC3.EVO.ETRG torrent
Arthur.And.Merlin.Knights.Of.Camelot.2020.1080p.WEB-DL.H264.AC3.EVO.ETRG torrent

ETTV Recommended UHD
Geostorm.2017.MULTI.2160p.HDR.WebRip.DTS-HDMA.5.1.HEVC-DDR.mkv torrent
Get.Hard.2015.MULTI.2160p.HDR.WebRip.DTS-HDMA.5.1.HEVC-DDR.mkv torrent
Heat.1995.MULTI.2160p.HDR.WebRip.DDP.5.1.HEVC-DDR.mkv torrent
The Laundromat.2019.MULTI.2160p.HDR.WebRip.DDP.5.1.HEVC-DDR.mkv torrent
Uncut.Gems.2020.MULTI.2160p.HDR.WebRip.DDP.5.1.HEVC-DDR.mkv torrent
American.Son.2019.MULTI.2160p.HDR.WebRip.DDP.5.1.HEVC-DDR.mkv torrent

ETTV Recommended Cam
The Hunt 2020 HDCAM x264 AC3-ETRG torrent
The Burnt Orange Heresy 2020 720p HDCAM-C1NEM4 torrent

ETTV Recommended Foreign
Girlfriend (2018) Bengali Hotstar 1080P WEB-DL x264 AAC - CineVood torrent
De Dana Dan (2009) Hindi (2160p Upscaled WEBRip x265 HEVC 10bit AAC 2.0 ESub Chapters) - [Musafirboy] torrent
Kazhugu 2 (2019) 720p UNCUT HDRip [Hindi + Tamil] x264 AAC - 850MB - MovCr torrent
Thelma & Louise (1991).720p.H264.ita.eng.Ac3.sub.ita.eng-MIRCrew torrent
Rum 213 (2017) 720p BluRay x264 Eng Subs [Dual Audio] [Hindi DD 2.0 - Swedish 2.0] Exclusive By -=!Dr.STAR!=- torrent
Cinderela Pop 2019 1080p NF WEB-DL DD+5.1.H264-BdC[EtHD] torrent

ETTV Recommended Misc
Donna Missal ~Lighter  Pop Album Mp3~(2020) [320]  kbps Beats⭐ torrent
VA - 60s, 70s, 80s, 90s Oldies (2020) Mp3 320kbps [PMEDIA] ⭐️ torrent
VA - 538 Hitzone 93 (2020) Mp3 (320kbps) [Hunter] torrent
Headdock - Hidden Sounds & Vibrations 13-07-2020 [3CD] {1337x} torrent


Download Torrent "In.the.Dark.2019.S02E07.HDTV.x264-SVA.ETRG"

IMDB Details
Description:

A young, blind woman tries to solve her friend's murder.

Genre:

Comedy, Drama

Download Torrent (Magnet)
Download Torrent (File)

Seeds: 81
Leechers: 11

Uploaded by:
gerald99


Category:
TV > SD/X264/H264 (Good for smaller screens)


Details
Title:In.the.Dark.2019.S02E07.HDTV.x264-SVA.ETRG
Description:

https://www.imdb.com/title/tt7772602/
Video
ID                                       : 1
Format                                   : AVC
Format/Info                              : Advanced Video Codec
Format profile                           : [email protected]
Format settings                          : CABAC / 5 Ref Frames
Format settings, CABAC                   : Yes
Format settings, Reference frames        : 5 frames
Codec ID                                 : V_MPEG4/ISO/AVC
Duration                                 : 41 min 53 s
Bit rate                                 : 576 kb/s
Width                                    : 720 pixels
Height                                   : 404 pixels
Display aspect ratio                     : 16:9
Frame rate mode                          : Constant
Frame rate                               : 23.976 (24000/1001) FPS
Color space                              : YUV
Chroma subsampling                       : 4:2:0
Bit depth                                : 8 bits
Scan type                                : Progressive
Bits/(Pixel*Frame)                       : 0.083
Stream size                              : 173 MiB (82%)
Writing library                          : x264 core 160 r3000 33f9e14
Encoding settings                        : cabac=1 / ref=5 / deblock=1:0:0 / analyse=0x3:0x113 / me=hex / subme=8 / psy=1 / psy_rd=1.00:0.00 / mixed_ref=1 / me_range=16 / chroma_me=1 / trellis=2 / 8x8dct=1 / cqm=0 / deadzone=21,11 / fast_pskip=1 / chroma_qp_offset=-2 / threads=13 / lookahead_threads=2 / sliced_threads=0 / nr=0 / decimate=1 / interlaced=0 / bluray_compat=0 / constrained_intra=0 / bframes=3 / b_pyramid=2 / b_adapt=1 / b_bias=0 / direct=3 / weightb=1 / open_gop=0 / weightp=2 / keyint=250 / keyint_min=23 / scenecut=40 / intra_refresh=0 / rc_lookahead=50 / rc=crf / mbtree=1 / crf=19.0 / qcomp=0.60 / qpmin=0 / qpmax=69 / qpstep=4 / ip_ratio=1.40 / aq=1:1.00
Default                                  : Yes
Forced                                   : No
Color range                              : Limited
Matrix coefficients                      : BT.709

Audio
ID                                       : 2
Format                                   : AAC LC
Format/Info                              : Advanced Audio Codec Low Complexity
Codec ID                                 : A_AAC-2
Duration                                 : 41 min 53 s
Bit rate                                 : 125 kb/s
Channel(s)                               : 2 channels
Channel layout                           : L R
Sampling rate                            : 48.0 kHz
Frame rate                               : 46.875 FPS (1024 SPF)
Compression mode                         : Lossy
Stream size                              : 37.4 MiB (18%)
Language                                 : English
Default                                  : Yes
Forced                                   : No
Category:TV > SD/X264/H264
Lang:English  English
Total Size:211 MB
Info Hash:501e26b45ebb5b95af5200869c7039afc0013d1c
Added By:gerald99
Date Added:29-05-2020 03:56:48

  

Files

File List: 
 File Size
9167670.jpg48.61 kB
Downloaded from ETTV.txt55.00 B
In the Dark.txt2.87 kB
In.the.Dark.mkv211 MB



Comments

There are currently no comments. Be the first one to write something !