The Outpost 2020 Yellowstone S03E04 Hightown  Palm Springs 2020 Scoob! 2020 rq.mp4 UFC Perry mason P-Valley S01E01 The 100 S07E08 njpw Relic 2020 dark  Invasion 2020 DC week Doom Patrol s02e05 You Should Have Left 2020 stargirl yts 0 Perry Mason S01E04 snowpiercer THE 100 formula  doom patrol Hightown s01e08 Eurovision Song Contest The Story of Fire Saga 2020 The Gentlemen 2019 Hanna s02e01 indycar Hamilton 2020 Trolls World Tour 2020 Blindspot S05E09 The Chi S03E04 ethd Blindspot Formula 1 2160p Snowpiercer S01E10 Condor Snowpiercer S01E09 Yellowstone S03E03 ettv The Old Guard 2020 Archive 2020 90 Day Fiance Happily Ever After S05E05 Irresistible 2020 Bad Boys for Life 2020 hindi etrg etmovies evo Greyhound 2020 Blindspot S05E10 Marvels Agents of S.H.I.E.L.D. S07E07 Artemis Fowl 2020 Greyhound xxx The Old Guard Stargirl S01E09 ddr Yellowstone Birds of Prey (and the Fantabulous Emancipation of One Harley Quinn) 2020 The King of Staten Island 2020 f1 wwe formula1 ufc 251 Force of Nature 2020 
Warning! Use a VPN When Downloading Torrents!
Your IP Address is 18.206.194.134. Location United States
Your Internet Provider can see when you download torrents! Hide your IP Address with a VPN
ETTV warns: You should use VPN to hide your torrenting. HIDE ME NOW
ETTV Recommended TV Shows
Snowpiercer.S01E09.720p.WEB.H264-METCON[ettv] torrent
Snowpiercer.S01E10.720p.WEB.H264-METCON[ettv] torrent
Yellowstone.2018.S03E04.1080p.HEVC.x265.MeGusta.ETRG torrent
Stargirl.S01E09.480p.x264.mSD.ETRG torrent

ETTV Recommended SD
Latte.And.The.Magic.Waterstone.2020.HDRip.XviD.AC3-EVO[EtMovies] torrent
Arthur.And.Merlin.Knights.Of.Camelot.2020.HDRip.XviD.AC3.EVO.ETRG torrent
Kat.And.The.Band.2020.HDRip.XviD.AC3.EVO.ETRG torrent
Masters.Of.Love.2020.HDRip.XviD.AC3.EVO.ETRG torrent

ETTV Recommended HD
Spectre 2015 BluRay 1080p AC3 x264-3Li torrent
Masters.Of.Love.2020.1080p.WEB-DL.H264.AC3.EVO.ETRG torrent
Kat.And.The.Band.2020.1080p.WEB-DL.H264.AC3.EVO.ETRG torrent
Arthur.And.Merlin.Knights.Of.Camelot.2020.1080p.WEB-DL.H264.AC3.EVO.ETRG torrent

ETTV Recommended UHD
Geostorm.2017.MULTI.2160p.HDR.WebRip.DTS-HDMA.5.1.HEVC-DDR.mkv torrent
Get.Hard.2015.MULTI.2160p.HDR.WebRip.DTS-HDMA.5.1.HEVC-DDR.mkv torrent
Heat.1995.MULTI.2160p.HDR.WebRip.DDP.5.1.HEVC-DDR.mkv torrent
The Laundromat.2019.MULTI.2160p.HDR.WebRip.DDP.5.1.HEVC-DDR.mkv torrent
Uncut.Gems.2020.MULTI.2160p.HDR.WebRip.DDP.5.1.HEVC-DDR.mkv torrent
American.Son.2019.MULTI.2160p.HDR.WebRip.DDP.5.1.HEVC-DDR.mkv torrent

ETTV Recommended Cam
The Hunt 2020 HDCAM x264 AC3-ETRG torrent
The Burnt Orange Heresy 2020 720p HDCAM-C1NEM4 torrent

ETTV Recommended Foreign
Girlfriend (2018) Bengali Hotstar 1080P WEB-DL x264 AAC - CineVood torrent
De Dana Dan (2009) Hindi (2160p Upscaled WEBRip x265 HEVC 10bit AAC 2.0 ESub Chapters) - [Musafirboy] torrent
Kazhugu 2 (2019) 720p UNCUT HDRip [Hindi + Tamil] x264 AAC - 850MB - MovCr torrent
Thelma & Louise (1991).720p.H264.ita.eng.Ac3.sub.ita.eng-MIRCrew torrent
Rum 213 (2017) 720p BluRay x264 Eng Subs [Dual Audio] [Hindi DD 2.0 - Swedish 2.0] Exclusive By -=!Dr.STAR!=- torrent
Cinderela Pop 2019 1080p NF WEB-DL DD+5.1.H264-BdC[EtHD] torrent

ETTV Recommended Misc
Donna Missal ~Lighter  Pop Album Mp3~(2020) [320]  kbps Beats⭐ torrent
VA - 60s, 70s, 80s, 90s Oldies (2020) Mp3 320kbps [PMEDIA] ⭐️ torrent
VA - 538 Hitzone 93 (2020) Mp3 (320kbps) [Hunter] torrent
Headdock - Hidden Sounds & Vibrations 13-07-2020 [3CD] {1337x} torrent


Download Torrent "Hammer.2020.1080p.WEBRip.X264.DD.5.1-EVO.ETRG"

IMDB Details
Description:

N/A

Genre:

N/A

Download Torrent (Magnet)
Download Torrent (File)

Seeds: 158
Leechers: 106

Uploaded by:
gerald99


Category:
Movies > HD 1080p (Great for large screens)


Details
Title:Hammer.2020.1080p.WEBRip.X264.DD.5.1-EVO.ETRG
Description:

https://www.imdb.com/title/tt6853934/

Video
ID                                       : 1
Format                                   : AVC
Format/Info                              : Advanced Video Codec
Format profile                           : [email protected]
Format settings                          : CABAC / 4 Ref Frames
Format settings, CABAC                   : Yes
Format settings, Reference frames        : 4 frames
Codec ID                                 : V_MPEG4/ISO/AVC
Duration                                 : 1 h 21 min
Bit rate                                 : 2 200 kb/s
Width                                    : 1 912 pixels
Height                                   : 796 pixels
Display aspect ratio                     : 2.40:1
Frame rate mode                          : Constant
Frame rate                               : 23.976 (24000/1001) FPS
Color space                              : YUV
Chroma subsampling                       : 4:2:0
Bit depth                                : 8 bits
Scan type                                : Progressive
Bits/(Pixel*Frame)                       : 0.060
Stream size                              : 1.25 GiB (85%)
Writing library                          : x264 core 159
Encoding settings                        : cabac=1 / ref=2 / deblock=1:0:0 / analyse=0x3:0x113 / me=hex / subme=6 / psy=1 / psy_rd=1.00:0.00 / mixed_ref=1 / me_range=16 / chroma_me=1 / trellis=1 / 8x8dct=1 / cqm=0 / deadzone=21,11 / fast_pskip=1 / chroma_qp_offset=-2 / threads=24 / lookahead_threads=4 / sliced_threads=0 / nr=0 / decimate=1 / interlaced=0 / bluray_compat=0 / constrained_intra=0 / bframes=3 / b_pyramid=2 / b_adapt=1 / b_bias=0 / direct=1 / weightb=1 / open_gop=0 / weightp=1 / keyint=250 / keyint_min=23 / scenecut=40 / intra_refresh=0 / rc_lookahead=30 / rc=2pass / mbtree=1 / bitrate=2200 / ratetol=1.0 / qcomp=0.60 / qpmin=0 / qpmax=69 / qpstep=4 / cplxblur=20.0 / qblur=0.5 / ip_ratio=1.40 / aq=1:1.00
Language                                 : English
Default                                  : Yes
Forced                                   : No

Audio
ID                                       : 2
Format                                   : AC-3
Format/Info                              : Audio Coding 3
Commercial name                          : Dolby Digital
Codec ID                                 : A_AC3
Duration                                 : 1 h 21 min
Bit rate mode                            : Constant
Bit rate                                 : 384 kb/s
Channel(s)                               : 6 channels
Channel layout                           : L R C LFE Ls Rs
Sampling rate                            : 48.0 kHz
Frame rate                               : 31.250 FPS (1536 SPF)
Compression mode                         : Lossy
Stream size                              : 223 MiB (15%)
Language                                 : English
Service kind                             : Complete Main
Default                                  : Yes
Forced                                   : No
Category:Movies > HD 1080p
Lang:English  English
Total Size:1.47 GB
Info Hash:b8ccd33ea73d1f48432f8e16516fbd38001eaf33
Added By:gerald99
Date Added:06-06-2020 15:00:29

  

Files

File List: 
 File Size
9220750.jpg42.91 kB
Downloaded from ETTV.txt55.00 B
Hammer.2020.1080p.WEBRip.X264.DD.5.1-EVO.mkv1.47 GB
Hammer.2020.1080p.WEBRip.X264.DD.5.1-EVO.NFO628.00 B
Hammer.txt3.08 kB



Comments

There are currently no comments. Be the first one to write something !