yellowstone You Should Have Left 2020 The 100 S07E08 Blindspot greyhound ethd Artemis Fowl 2020 The Outpost 2020 wwe snowpiercer yts ddr Eurovision Song Contest The Story of Fire Saga 2020 Condor etmovies the 100 Xxx etrg Greyhound 2020 the old guard Hamilton 2020 Trolls World Tour 2020 Hanna s02e01 Palm Springs 2020 The King of Staten Island 2020 Scoob! 2020 Birds of Prey (and the Fantabulous Emancipation of One Harley Quinn) 2020 hindi 0 palm springs The Old Guard 2020 Hanna s02e03 Blindspot S05E09 old guard indycar The Invisible Man 2020 Relic 2020 Hanna s02e06 rq.mp4 doom patrol Invasion 2020 evo The Gentlemen 2019 Blindspot S05E10 Hightown  Irresistible 2020 Hanna s02e04 Bering Sea Gold S12E10 Formula 1 ufc Hanna s02e02 ettv Yellowstone S03E04 westworld stargirl Formula1 f1 Yellowstone s03e03 Hanna s02e05 2160P nos4a2 Doom Patrol s02e05 Desperados 2020 ufc 251 dark  Marvels Agents of S.H.I.E.L.D. S07E07 Force of Nature 2020 Archive 2020 Hanna s02e08 Bad Boys for Life 2020 
Warning! Use a VPN When Downloading Torrents!
Your IP Address is 18.206.194.134. Location United States
Your Internet Provider can see when you download torrents! Hide your IP Address with a VPN
ETTV warns: You should use VPN to hide your torrenting. HIDE ME NOW
ETTV Recommended TV Shows
Snowpiercer.S01E09.720p.WEB.H264-METCON[ettv] torrent
Snowpiercer.S01E10.720p.WEB.H264-METCON[ettv] torrent
Yellowstone.2018.S03E04.1080p.HEVC.x265.MeGusta.ETRG torrent
Stargirl.S01E09.480p.x264.mSD.ETRG torrent

ETTV Recommended SD
Latte.And.The.Magic.Waterstone.2020.HDRip.XviD.AC3-EVO[EtMovies] torrent
Arthur.And.Merlin.Knights.Of.Camelot.2020.HDRip.XviD.AC3.EVO.ETRG torrent
Kat.And.The.Band.2020.HDRip.XviD.AC3.EVO.ETRG torrent
Masters.Of.Love.2020.HDRip.XviD.AC3.EVO.ETRG torrent

ETTV Recommended HD
Spectre 2015 BluRay 1080p AC3 x264-3Li torrent
Masters.Of.Love.2020.1080p.WEB-DL.H264.AC3.EVO.ETRG torrent
Kat.And.The.Band.2020.1080p.WEB-DL.H264.AC3.EVO.ETRG torrent
Arthur.And.Merlin.Knights.Of.Camelot.2020.1080p.WEB-DL.H264.AC3.EVO.ETRG torrent

ETTV Recommended UHD
Geostorm.2017.MULTI.2160p.HDR.WebRip.DTS-HDMA.5.1.HEVC-DDR.mkv torrent
Get.Hard.2015.MULTI.2160p.HDR.WebRip.DTS-HDMA.5.1.HEVC-DDR.mkv torrent
Heat.1995.MULTI.2160p.HDR.WebRip.DDP.5.1.HEVC-DDR.mkv torrent
The Laundromat.2019.MULTI.2160p.HDR.WebRip.DDP.5.1.HEVC-DDR.mkv torrent
Uncut.Gems.2020.MULTI.2160p.HDR.WebRip.DDP.5.1.HEVC-DDR.mkv torrent
American.Son.2019.MULTI.2160p.HDR.WebRip.DDP.5.1.HEVC-DDR.mkv torrent

ETTV Recommended Cam
The Hunt 2020 HDCAM x264 AC3-ETRG torrent
The Burnt Orange Heresy 2020 720p HDCAM-C1NEM4 torrent

ETTV Recommended Foreign
AI Amok 2020 720p BluRay x264 Ganool torrent
Girlfriend (2018) Bengali Hotstar 1080P WEB-DL x264 AAC - CineVood torrent
De Dana Dan (2009) Hindi (2160p Upscaled WEBRip x265 HEVC 10bit AAC 2.0 ESub Chapters) - [Musafirboy] torrent
Kazhugu 2 (2019) 720p UNCUT HDRip [Hindi + Tamil] x264 AAC - 850MB - MovCr torrent
Thelma & Louise (1991).720p.H264.ita.eng.Ac3.sub.ita.eng-MIRCrew torrent
Rum 213 (2017) 720p BluRay x264 Eng Subs [Dual Audio] [Hindi DD 2.0 - Swedish 2.0] Exclusive By -=!Dr.STAR!=- torrent

ETTV Recommended Misc
Donna Missal ~Lighter  Pop Album Mp3~(2020) [320]  kbps Beats⭐ torrent
VA - 60s, 70s, 80s, 90s Oldies (2020) Mp3 320kbps [PMEDIA] ⭐️ torrent
VA - 538 Hitzone 93 (2020) Mp3 (320kbps) [Hunter] torrent
Headdock - Hidden Sounds & Vibrations 13-07-2020 [3CD] {1337x} torrent


Download Torrent "Three.Christs.2020.BDRip.x264.AC3-EVO.ETRG"

IMDB Details
Description:

N/A

Genre:

N/A

Download Torrent (Magnet)
Download Torrent (File)

Seeds: 162
Leechers: 64

Uploaded by:
gerald99


Category:
Movies > HD 720p (Great for large screens)


Details
Title:Three.Christs.2020.BDRip.x264.AC3-EVO.ETRG
Description:

https://www.imdb.com/title/tt5706370/
Video
ID                                       : 1
Format                                   : AVC
Format/Info                              : Advanced Video Codec
Format profile                           : [email protected]
Format settings                          : CABAC / 4 Ref Frames
Format settings, CABAC                   : Yes
Format settings, Reference frames        : 4 frames
Codec ID                                 : V_MPEG4/ISO/AVC
Duration                                 : 1 h 48 min
Bit rate                                 : 1 500 kb/s
Width                                    : 720 pixels
Height                                   : 384 pixels
Display aspect ratio                     : 1.85:1
Frame rate mode                          : Constant
Frame rate                               : 23.976 (24000/1001) FPS
Color space                              : YUV
Chroma subsampling                       : 4:2:0
Bit depth                                : 8 bits
Scan type                                : Progressive
Bits/(Pixel*Frame)                       : 0.226
Stream size                              : 1.11 GiB (78%)
Writing library                          : x264 core 142 r2479 dd79a61
Encoding settings                        : cabac=1 / ref=1 / deblock=1:0:0 / analyse=0x3:0x3 / me=dia / subme=1 / psy=1 / psy_rd=1.00:0.00 / mixed_ref=0 / me_range=16 / chroma_me=1 / trellis=0 / 8x8dct=1 / cqm=0 / deadzone=21,11 / fast_pskip=1 / chroma_qp_offset=0 / threads=12 / lookahead_threads=2 / sliced_threads=0 / nr=0 / decimate=1 / interlaced=0 / bluray_compat=0 / constrained_intra=0 / bframes=3 / b_pyramid=2 / b_adapt=1 / b_bias=0 / direct=1 / weightb=1 / open_gop=0 / weightp=1 / keyint=240 / keyint_min=24 / scenecut=40 / intra_refresh=0 / rc_lookahead=0 / rc=abr / mbtree=0 / bitrate=1500 / ratetol=1.0 / qcomp=0.60 / qpmin=0 / qpmax=69 / qpstep=4 / vbv_maxrate=62500 / vbv_bufsize=78125 / nal_hrd=none / filler=0 / ip_ratio=1.40 / pb_ratio=1.30 / aq=1:1.00
Default                                  : Yes
Forced                                   : No
Color range                              : Limited
Color primaries                          : BT.709
Transfer characteristics                 : BT.709
Matrix coefficients                      : BT.709
Duration_Source                          : General_Duration

Audio
ID                                       : 2
Format                                   : AC-3
Format/Info                              : Audio Coding 3
Commercial name                          : Dolby Digital
Codec ID                                 : A_AC3
Duration                                 : 1 h 48 min
Bit rate mode                            : Constant
Bit rate                                 : 384 kb/s
Channel(s)                               : 6 channels
Channel layout                           : L R C LFE Ls Rs
Sampling rate                            : 48.0 kHz
Frame rate                               : 31.250 FPS (1536 SPF)
Compression mode                         : Lossy
Delay relative to video                  : -5 ms
Stream size                              : 299 MiB (20%)
Title                                    : Surround
Language                                 : English
Service kind                             : Complete Main
Default                                  : Yes
Forced                                   : No
Duration_Source                          : General_Duration
Category:Movies > HD 720p
Lang:English  English
Total Size:1.43 GB
Info Hash:8d6c8731b07e4f4a9af7fe885e6dc121ea86fe68
Added By:gerald99
Date Added:06-06-2020 15:06:52

  

Files

File List: 
 File Size
9233510.jpg28.57 kB
Downloaded from ETTV.txt55.00 B
Three Christs.txt3.51 kB
Three.Christs.2020.BDRip.XviD.AC3-EVO.avi1.43 GB
Three.Christs.2020.BDRip.XviD.AC3-EVO.nfo623.00 B



Comments

There are currently no comments. Be the first one to write something !