Blindspot Sputnik 2020 The Rental 2020 Big Brother S22E03 agents of Made in Italy 2020 The Outpost 2020 Big Brother S22E04 HINDI khuda hafiz Abhay  The Secret Garden 2020 the fugitive Star Trek Lower Decks s01e02 Greyhound 2020 ted lasso Marvels Agents of S.H.I.E.L.D. S07E12 Khuda haafiz Sputnik Deathstroke Knights and Dragons - The Movie 2020 the 100 s07e11 marvel week Marvels.Agents.of.S.H.I.E.L.D etmovies ethd ddr supernatural  The Tax Collector 2020 Project Power 2020 greenland 2020 Tesla 2020 Yellowstone S03E08 etrg The Old Guard 2020 evo yts wwe Waiting for the Barbarians 2020 wentworth Hindi 2020 Black Water Abyss 2020 The Fugitive S01E01 Agents of S.H.I.E.L.D. peninsula 2020 Evo Marvels Agents of S.H.I.E.L.D. S07E13 An American Pickle 2020 greys anatomy abhay 2 Deep Blue Sea 3 2020 rq.mp4 star trek project power stargirl 2160p Knives Out 2019 Marvels Agents Unhinged 2020 yellowstone big bang theory español tesla The Real Housewives of Beverly Hills S10E14 THE 100 ettv agents xxx arrow español Double Shot at Love S02E10 Marvels Agents of S H I E L D s07e13 doom patrol Alone S07E10 
Warning! Use a VPN When Downloading Torrents!
Your IP Address is 54.160.19.155. Location United States
Your Internet Provider can see when you download torrents! Hide your IP Address with a VPN
ETTV warns: You should use VPN to hide your torrenting. HIDE ME NOW
ETTV Recommended TV Shows
WWE Friday Night SmackDown 2020 08 14 HDTV x264-NWCHD [TJET] torrent
WWE 205 Live 2020 08 14 720p Hi WEB h264-HEEL [TJET] torrent
F3. 2020. R06. Spanish Weekend On Sky F1 HD. 1080P torrent
NJPW 2020 08 14 Strong Episode 2 ENGLISH 720p WEB h264-LATE [TJET] torrent
MotoGP.2020.R04.Austria.FP3.1080p.WEB.x264-BaNHaMMER torrent
Moto3.2020.R05.Austria.Qualifying.1080p.WEB.x264-BaNHaMMER torrent

ETTV Recommended SD
The.Silencing.2020.V2.HDRip.XviD.AC3-EVO[EtMovies] torrent
Project.Power.2020.HDRip.XviD.AC3-EVO[EtMovies] torrent
Fearless.2020.HDRip.XviD.AC3-EVO[EtMovies] torrent
Octonauts.and.the.Caves.of.Sac.Actun.2020.HDRip.XviD.AC3-EVO[EtMovies] torrent

ETTV Recommended HD
The.Bay.of.Silence.2020.1080p.WEB-DL.H264.AC3-EVO[EtHD] torrent
Project.Power.2020.1080p.NF.WEBRip.DD5.1.X.264-EVO[EtHD] torrent
Octonauts.and.the.Caves.of.Sac.Actun.2020.1080p.NF.WEB-DL.DDP5.1.x264-CMRG[EtHD] torrent
Fearless.2020.1080p.NF.WEBRip.DD5.1.X.264-EVO[EtHD] torrent

ETTV Recommended UHD
Star.Wars.Caravan.of.Courage.An.Ewok.Adventure.1984.2160p.SDR.DD.5.1.HEVC-DDR.mkv torrent
Michelangelo.Infinito.2018.2160p.Blu-ray.2160p.HDR.DTS-HDMA.5.1.HEVC-DDR.mkv torrent
Point.Break.2015.UHD.BluRay.2160p.HDR.DTS-HD.MA.7.1.HEVC-DDR.mkv torrent
Puppet.Master.The.Littlest.Reich.2018.BluRay.2160p.SDR.DTS-HDMA.5.1.HEVC-DDR.mkv torrent
Underworld.Blood.Wars.2016.2160p.UHD.Blu-ray.TrueHD.7.1.HEVC-DDR.mkv torrent
Zero.Dark.Thirty.2012.2160p.UHD.Blu-ray.Atmos.7.1.HEVC-DDR.mkv torrent

ETTV Recommended Cam
The Hunt 2020 HDCAM x264 AC3-ETRG torrent
The Burnt Orange Heresy 2020 720p HDCAM-C1NEM4 torrent

ETTV Recommended Foreign
Premam (2015) (1080p BluRay x265 HEVC 10bit EAC3 5.1 Malayalam Bandi) [QxR] torrent
The Ring Trilogia (2002-2017) 1080p H265 AC3 5.1 ITA.ENG sub ita.eng Sp33dy94 MIRCrew torrent
Lockup (2020) [TAMIL - 720p - WEB HDRip - x264 - AAC 2.1 - ESub - 2GB] - MAZE torrent
Enemy Gold (1993) UNRATED 720p BluRay x264 Eng Subs [Dual Audio] [Hindi DD 2.0 - English 2.0] Exclusive By -=!Dr.STAR!=- torrent
Haleema.2013.1080p.WEBRip.x264.HORiZON-ArtSubs torrent
Dosti (1964) Hindi 720p WEB-DL x264 AAC 2.0 {1337PRO} torrent

ETTV Recommended Misc
125 Tracks Rod Stewart ~Greatest Songs Playlist Spotify Mp3~ [320]  kbps Beats⭐ torrent
Khuda Haafiz (2020) Full Album Mp3-Flac-M4a [FPRG] torrent
The Doors - Live At The Bowl \'68 2012 Hi-Res FLAC (oan) torrent
VA - New Music Releases Week 33 of 2020 (Mp3 320kbps Songs) [PMEDIA] ⭐️ torrent
Timi Yuro - What's A Matter Baby - Plus Soul - [FLAC]-[TFM] torrent
[indie-pop, indie-rock] (2020) Liela Moss - Who the Power [FLAC] [DarkAngie] torrent


Download Torrent "In the Shadow of the Moon 2019.2160p.HDR.WEBRip.Atmos 5.1.HEVC-DDR.mkv"

IMDB Details
Description:

A Philadelphia police officer struggles with a lifelong obsession to track down a mysterious serial killer whose crimes defy explanation.

Genre:

Crime, Mystery, Sci-Fi, Thriller

Download Torrent (Magnet)
Download Torrent (File)

Seeds: 120
Leechers: 92

Uploaded by:
DDR


Category:
Movies > UltraHD/4K


Details
Title:In the Shadow of the Moon 2019.2160p.HDR.WEBRip.Atmos 5.1.HEVC-DDR.mkv
Description:






General
Unique ID                                : 12775923984181494101875735521679480004 (0x99C8DAF58DE2A88841C4F3F271994C4)
Complete name                            : D:\00_demux\In the Shadow of the Moon 2019.2160p.HDR.WEBRip.Atmos 5.1.HEVC-DDR.mkv
Format                                   : Matroska
Format version                           : Version 4
File size                                : 8.57 GiB
Duration                                 : 1 h 55 min
Overall bit rate                         : 10.6 Mb/s
Encoded date                             : UTC 2020-07-26 19:02:17
Writing application                      : mkvmerge v47.0.0 ('Black Flag') 64-bit
Writing library                          : libebml v1.3.10 + libmatroska v1.5.2

Video
ID                                       : 1
Format                                   : HEVC
Format/Info                              : High Efficiency Video Coding
Commercial name                          : HDR10
Format profile                           : Main [email protected]@High
Codec ID                                 : V_MPEGH/ISO/HEVC
Duration                                 : 1 h 54 min
Bit rate                                 : 9 907 kb/s
Width                                    : 3 840 pixels
Height                                   : 1 600 pixels
Display aspect ratio                     : 2.40:1
Frame rate mode                          : Constant
Frame rate                               : 24.000 FPS
Color space                              : YUV
Chroma subsampling                       : 4:2:0
Bit depth                                : 10 bits
Bits/(Pixel*Frame)                       : 0.067
Stream size                              : 7.95 GiB (93%)
Language                                 : English
Default                                  : Yes
Forced                                   : No
Color range                              : Limited
Color primaries                          : BT.2020
Transfer characteristics                 : PQ
Matrix coefficients                      : BT.2020 non-constant
Mastering display color primaries        : Display P3
Mastering display luminance              : min: 0.0050 cd/m2, max: 1000 cd/m2
Maximum Content Light Level              : 7953 cd/m2
Maximum Frame-Average Light Level        : 720 cd/m2

Audio
ID                                       : 2
Format                                   : E-AC-3 JOC
Format/Info                              : Enhanced AC-3 with Joint Object Coding
Commercial name                          : Dolby Digital Plus with Dolby Atmos
Codec ID                                 : A_EAC3
Duration                                 : 1 h 55 min
Bit rate mode                            : Constant
Bit rate                                 : 768 kb/s
Channel(s)                               : 6 channels
Channel layout                           : L R C LFE Ls Rs
Sampling rate                            : 48.0 kHz
Frame rate                               : 31.250 FPS (1536 SPF)
Compression mode                         : Lossy
Stream size                              : 635 MiB (7%)
Title                                    : English
Language                                 : English
Service kind                             : Complete Main
Default                                  : Yes
Forced                                   : No
Complexity index                         : 16
Number of dynamic objects                : 15
Bed channel count                        : 1 channel
Bed channel configuration                : LFE

Text #1
ID                                       : 3
Format                                   : UTF-8
Codec ID                                 : S_TEXT/UTF8
Codec ID/Info                            : UTF-8 Plain Text
Duration                                 : 1 h 46 min
Bit rate                                 : 52 b/s
Count of elements                        : 1379
Stream size                              : 41.1 KiB (0%)
Title                                    : English
Language                                 : English
Default                                  : No
Forced                                   : No

Text #2
ID                                       : 4
Format                                   : UTF-8
Codec ID                                 : S_TEXT/UTF8
Codec ID/Info                            : UTF-8 Plain Text
Duration                                 : 1 h 49 min
Bit rate                                 : 60 b/s
Count of elements                        : 1705
Stream size                              : 48.7 KiB (0%)
Title                                    : English [SDH]
Language                                 : English
Default                                  : No
Forced                                   : No

Text #3
ID                                       : 5
Format                                   : UTF-8
Codec ID                                 : S_TEXT/UTF8
Codec ID/Info                            : UTF-8 Plain Text
Duration                                 : 1 h 54 min
Bit rate                                 : 81 b/s
Count of elements                        : 1338
Stream size                              : 67.9 KiB (0%)
Title                                    : Arabic
Language                                 : Arabic
Default                                  : No
Forced                                   : No

Text #4
ID                                       : 6
Format                                   : UTF-8
Codec ID                                 : S_TEXT/UTF8
Codec ID/Info                            : UTF-8 Plain Text
Duration                                 : 1 h 54 min
Bit rate                                 : 41 b/s
Count of elements                        : 1323
Stream size                              : 34.8 KiB (0%)
Title                                    : Castilian
Language                                 : Spanish
Default                                  : No
Forced                                   : No

Text #5
ID                                       : 7
Format                                   : UTF-8
Codec ID                                 : S_TEXT/UTF8
Codec ID/Info                            : UTF-8 Plain Text
Duration                                 : 1 h 54 min
Bit rate                                 : 45 b/s
Count of elements                        : 1345
Stream size                              : 38.3 KiB (0%)
Title                                    : Spanish
Language                                 : Spanish
Default                                  : No
Forced                                   : No

Text #6
ID                                       : 8
Format                                   : UTF-8
Codec ID                                 : S_TEXT/UTF8
Codec ID/Info                            : UTF-8 Plain Text
Duration                                 : 1 h 54 min
Bit rate                                 : 39 b/s
Count of elements                        : 1140
Stream size                              : 33.3 KiB (0%)
Title                                    : French
Language                                 : French
Default                                  : No
Forced                                   : No

Text #7
ID                                       : 9
Format                                   : UTF-8
Codec ID                                 : S_TEXT/UTF8
Codec ID/Info                            : UTF-8 Plain Text
Duration                                 : 1 h 54 min
Bit rate                                 : 40 b/s
Count of elements                        : 1269
Stream size                              : 34.2 KiB (0%)
Title                                    : German
Language                                 : German
Default                                  : No
Forced                                   : No

Text #8
ID                                       : 10
Format                                   : UTF-8
Codec ID                                 : S_TEXT/UTF8
Codec ID/Info                            : UTF-8 Plain Text
Duration                                 : 1 h 54 min
Bit rate                                 : 47 b/s
Count of elements                        : 1339
Stream size                              : 39.7 KiB (0%)
Title                                    : Italian
Language                                 : Italian
Default                                  : No
Forced                                   : No

Text #9
ID                                       : 11
Format                                   : UTF-8
Codec ID                                 : S_TEXT/UTF8
Codec ID/Info                            : UTF-8 Plain Text
Duration                                 : 1 h 54 min
Bit rate                                 : 45 b/s
Count of elements                        : 1316
Stream size                              : 38.0 KiB (0%)
Title                                    : Portuguese
Language                                 : Portuguese
Default                                  : No
Forced                                   : No

Text #10
ID                                       : 12
Format                                   : UTF-8
Codec ID                                 : S_TEXT/UTF8
Codec ID/Info                            : UTF-8 Plain Text
Duration                                 : 1 h 54 min
Bit rate                                 : 44 b/s
Count of elements                        : 1319
Stream size                              : 37.3 KiB (0%)
Title                                    : Brazilian Portuguese
Language                                 : Portuguese
Default                                  : No
Forced                                   : No

Text #11
ID                                       : 13
Format                                   : UTF-8
Codec ID                                 : S_TEXT/UTF8
Codec ID/Info                            : UTF-8 Plain Text
Duration                                 : 1 h 54 min
Bit rate                                 : 41 b/s
Count of elements                        : 1328
Stream size                              : 34.4 KiB (0%)
Title                                    : Polish
Language                                 : Polish
Default                                  : No
Forced                                   : No

Text #12
ID                                       : 14
Format                                   : UTF-8
Codec ID                                 : S_TEXT/UTF8
Codec ID/Info                            : UTF-8 Plain Text
Duration                                 : 1 h 54 min
Bit rate                                 : 47 b/s
Count of elements                        : 1338
Stream size                              : 39.9 KiB (0%)
Title                                    : Turkish
Language                                 : Turkish
Default                                  : No
Forced                                   : No

Text #13
ID                                       : 15
Format                                   : UTF-8
Codec ID                                 : S_TEXT/UTF8
Codec ID/Info                            : UTF-8 Plain Text
Duration                                 : 1 h 54 min
Bit rate                                 : 43 b/s
Count of elements                        : 1125
Stream size                              : 36.4 KiB (0%)
Title                                    : Swedish
Language                                 : Swedish
Default                                  : No
Forced                                   : No

Text #14
ID                                       : 16
Format                                   : UTF-8
Codec ID                                 : S_TEXT/UTF8
Codec ID/Info                            : UTF-8 Plain Text
Duration                                 : 1 h 54 min
Bit rate                                 : 40 b/s
Count of elements                        : 1179
Stream size                              : 34.1 KiB (0%)
Title                                    : Danish
Language                                 : Danish
Default                                  : No
Forced                                   : No

Text #15
ID                                       : 17
Format                                   : UTF-8
Codec ID                                 : S_TEXT/UTF8
Codec ID/Info                            : UTF-8 Plain Text
Duration                                 : 1 h 54 min
Bit rate                                 : 36 b/s
Count of elements                        : 832
Stream size                              : 30.5 KiB (0%)
Title                                    : Finnish
Language                                 : Finnish
Default                                  : No
Forced                                   : No

Text #16
ID                                       : 18
Format                                   : UTF-8
Codec ID                                 : S_TEXT/UTF8
Codec ID/Info                            : UTF-8 Plain Text
Duration                                 : 1 h 54 min
Bit rate                                 : 36 b/s
Count of elements                        : 1119
Stream size                              : 30.9 KiB (0%)
Title                                    : Dutch
Language                                 : Dutch
Default                                  : No
Forced                                   : No

Text #17
ID                                       : 19
Format                                   : UTF-8
Codec ID                                 : S_TEXT/UTF8
Codec ID/Info                            : UTF-8 Plain Text
Duration                                 : 1 h 54 min
Bit rate                                 : 42 b/s
Count of elements                        : 1125
Stream size                              : 35.6 KiB (0%)
Title                                    : Norwegian
Language                                 : Norwegian
Default                                  : No
Forced                                   : No

Text #18
ID                                       : 20
Format                                   : UTF-8
Codec ID                                 : S_TEXT/UTF8
Codec ID/Info                            : UTF-8 Plain Text
Duration                                 : 1 h 54 min
Bit rate                                 : 67 b/s
Count of elements                        : 1226
Stream size                              : 56.8 KiB (0%)
Title                                    : Russian
Language                                 : Russian
Default                                  : No
Forced                                   : No

Text #19
ID                                       : 21
Format                                   : UTF-8
Codec ID                                 : S_TEXT/UTF8
Codec ID/Info                            : UTF-8 Plain Text
Duration                                 : 1 h 54 min
Bit rate                                 : 48 b/s
Count of elements                        : 1343
Stream size                              : 40.1 KiB (0%)
Title                                    : Hungarian
Language                                 : Hungarian
Default                                  : No
Forced                                   : No

Text #20
ID                                       : 22
Format                                   : UTF-8
Codec ID                                 : S_TEXT/UTF8
Codec ID/Info                            : UTF-8 Plain Text
Duration                                 : 1 h 54 min
Bit rate                                 : 73 b/s
Count of elements                        : 1283
Stream size                              : 61.3 KiB (0%)
Title                                    : Greek
Language                                 : Greek
Default                                  : No
Forced                                   : No

Text #21
ID                                       : 23
Format                                   : UTF-8
Codec ID                                 : S_TEXT/UTF8
Codec ID/Info                            : UTF-8 Plain Text
Duration                                 : 1 h 54 min
Bit rate                                 : 73 b/s
Count of elements                        : 1270
Stream size                              : 61.5 KiB (0%)
Title                                    : Hebrew
Language                                 : Hebrew
Default                                  : No
Forced                                   : No

Text #22
ID                                       : 24
Format                                   : UTF-8
Codec ID                                 : S_TEXT/UTF8
Codec ID/Info                            : UTF-8 Plain Text
Duration                                 : 1 h 54 min
Bit rate                                 : 53 b/s
Count of elements                        : 1347
Stream size                              : 44.6 KiB (0%)
Title                                    : Romanian
Language                                 : Romanian
Default                                  : No
Forced                                   : No

Text #23
ID                                       : 25
Format                                   : UTF-8
Codec ID                                 : S_TEXT/UTF8
Codec ID/Info                            : UTF-8 Plain Text
Duration                                 : 1 h 54 min
Bit rate                                 : 41 b/s
Count of elements                        : 1275
Stream size                              : 35.0 KiB (0%)
Title                                    : Czech
Language                                 : Czech
Default                                  : No
Forced                                   : No

Text #24
ID                                       : 26
Format                                   : UTF-8
Codec ID                                 : S_TEXT/UTF8
Codec ID/Info                            : UTF-8 Plain Text
Duration                                 : 1 h 54 min
Bit rate                                 : 123 b/s
Count of elements                        : 1349
Stream size                              : 103 KiB (0%)
Title                                    : Hindi
Language                                 : Hindi
Default                                  : No
Forced                                   : No

Text #25
ID                                       : 27
Format                                   : UTF-8
Codec ID                                 : S_TEXT/UTF8
Codec ID/Info                            : UTF-8 Plain Text
Duration                                 : 1 h 54 min
Bit rate                                 : 46 b/s
Count of elements                        : 1356
Stream size                              : 39.1 KiB (0%)
Title                                    : Indonesian
Language                                 : Indonesian
Default                                  : No
Forced                                   : No

Text #26
ID                                       : 28
Format                                   : UTF-8
Codec ID                                 : S_TEXT/UTF8
Codec ID/Info                            : UTF-8 Plain Text
Duration                                 : 1 h 47 min
Bit rate                                 : 61 b/s
Count of elements                        : 1341
Stream size                              : 48.1 KiB (0%)
Title                                    : Vietnamese
Language                                 : Vietnamese
Default                                  : No
Forced                                   : No

Text #27
ID                                       : 29
Format                                   : UTF-8
Codec ID                                 : S_TEXT/UTF8
Codec ID/Info                            : UTF-8 Plain Text
Duration                                 : 1 h 54 min
Bit rate                                 : 116 b/s
Count of elements                        : 1348
Stream size                              : 97.1 KiB (0%)
Title                                    : Thai
Language                                 : Thai
Default                                  : No
Forced                                   : No

Text #28
ID                                       : 30
Format                                   : UTF-8
Codec ID                                 : S_TEXT/UTF8
Codec ID/Info                            : UTF-8 Plain Text
Duration                                 : 1 h 54 min
Bit rate                                 : 56 b/s
Count of elements                        : 1281
Stream size                              : 46.9 KiB (0%)
Title                                    : Korean
Language                                 : Korean
Default                                  : No
Forced                                   : No

Text #29
ID                                       : 31
Format                                   : UTF-8
Codec ID                                 : S_TEXT/UTF8
Codec ID/Info                            : UTF-8 Plain Text
Duration                                 : 1 h 54 min
Bit rate                                 : 44 b/s
Count of elements                        : 1347
Stream size                              : 37.2 KiB (0%)
Title                                    : Chinese (Simplified)
Language                                 : Chinese
Default                                  : No
Forced                                   : No

Text #30
ID                                       : 32
Format                                   : UTF-8
Codec ID                                 : S_TEXT/UTF8
Codec ID/Info                            : UTF-8 Plain Text
Duration                                 : 1 h 54 min
Bit rate                                 : 42 b/s
Count of elements                        : 1350
Stream size                              : 35.3 KiB (0%)
Title                                    : Chinese (Traditional)
Language                                 : Chinese
Default                                  : No
Forced                                   : No

Text #31
ID                                       : 33
Format                                   : UTF-8
Codec ID                                 : S_TEXT/UTF8
Codec ID/Info                            : UTF-8 Plain Text
Duration                                 : 1 h 54 min
Bit rate                                 : 44 b/s
Count of elements                        : 1344
Stream size                              : 37.3 KiB (0%)
Title                                    : Japanese
Language                                 : Japanese
Default                                  : No
Forced                                   : No




MikeKhan /Desitorrents.tv

Category:Movies > UltraHD/4K
Lang:English  English
Total Size:8.57 GB
Info Hash:c62e058b6eb47490ce4f9ed99ca5c558e6d27b23
Added By:DDR
Date Added:26-07-2020 21:39:43

  

Files

File List: 
 File Size
In the Shadow of the Moon 2019.2160p.HDR.WEBRip.Atmos 5.1.HEVC-DDR.mkv8.57 GB



Comments

There are currently no comments. Be the first one to write something !