Blindspot Sputnik 2020 The Rental 2020 Big Brother S22E03 agents of Made in Italy 2020 The Outpost 2020 Big Brother S22E04 HINDI khuda hafiz Abhay  The Secret Garden 2020 the fugitive Star Trek Lower Decks s01e02 Greyhound 2020 ted lasso Marvels Agents of S.H.I.E.L.D. S07E12 Khuda haafiz Sputnik Deathstroke Knights and Dragons - The Movie 2020 the 100 s07e11 marvel week Marvels.Agents.of.S.H.I.E.L.D etmovies ethd ddr supernatural  The Tax Collector 2020 Project Power 2020 greenland 2020 Tesla 2020 Yellowstone S03E08 etrg The Old Guard 2020 evo yts wwe Waiting for the Barbarians 2020 wentworth Hindi 2020 Black Water Abyss 2020 The Fugitive S01E01 Agents of S.H.I.E.L.D. peninsula 2020 Evo Marvels Agents of S.H.I.E.L.D. S07E13 An American Pickle 2020 greys anatomy abhay 2 Deep Blue Sea 3 2020 rq.mp4 star trek project power stargirl 2160p Knives Out 2019 Marvels Agents Unhinged 2020 yellowstone big bang theory español tesla The Real Housewives of Beverly Hills S10E14 THE 100 ettv agents xxx arrow español Double Shot at Love S02E10 Marvels Agents of S H I E L D s07e13 doom patrol Alone S07E10 
Warning! Use a VPN When Downloading Torrents!
Your IP Address is 54.160.19.155. Location United States
Your Internet Provider can see when you download torrents! Hide your IP Address with a VPN
ETTV warns: You should use VPN to hide your torrenting. HIDE ME NOW
ETTV Recommended TV Shows
WWE Friday Night SmackDown 2020 08 14 HDTV x264-NWCHD [TJET] torrent
WWE 205 Live 2020 08 14 720p Hi WEB h264-HEEL [TJET] torrent
F3. 2020. R06. Spanish Weekend On Sky F1 HD. 1080P torrent
NJPW 2020 08 14 Strong Episode 2 ENGLISH 720p WEB h264-LATE [TJET] torrent
Moto3.2020.R05.Austria.Qualifying.1080p.WEB.x264-BaNHaMMER torrent
MotoGP.2020.R04.Austria.FP4.1080p.WEB.x264-BaNHaMMER torrent

ETTV Recommended SD
The.Silencing.2020.V2.HDRip.XviD.AC3-EVO[EtMovies] torrent
Project.Power.2020.HDRip.XviD.AC3-EVO[EtMovies] torrent
Fearless.2020.HDRip.XviD.AC3-EVO[EtMovies] torrent
Octonauts.and.the.Caves.of.Sac.Actun.2020.HDRip.XviD.AC3-EVO[EtMovies] torrent

ETTV Recommended HD
The.Bay.of.Silence.2020.1080p.WEB-DL.H264.AC3-EVO[EtHD] torrent
Project.Power.2020.1080p.NF.WEBRip.DD5.1.X.264-EVO[EtHD] torrent
Octonauts.and.the.Caves.of.Sac.Actun.2020.1080p.NF.WEB-DL.DDP5.1.x264-CMRG[EtHD] torrent
Fearless.2020.1080p.NF.WEBRip.DD5.1.X.264-EVO[EtHD] torrent

ETTV Recommended UHD
Star.Wars.Caravan.of.Courage.An.Ewok.Adventure.1984.2160p.SDR.DD.5.1.HEVC-DDR.mkv torrent
Michelangelo.Infinito.2018.2160p.Blu-ray.2160p.HDR.DTS-HDMA.5.1.HEVC-DDR.mkv torrent
Point.Break.2015.UHD.BluRay.2160p.HDR.DTS-HD.MA.7.1.HEVC-DDR.mkv torrent
Puppet.Master.The.Littlest.Reich.2018.BluRay.2160p.SDR.DTS-HDMA.5.1.HEVC-DDR.mkv torrent
Underworld.Blood.Wars.2016.2160p.UHD.Blu-ray.TrueHD.7.1.HEVC-DDR.mkv torrent
Zero.Dark.Thirty.2012.2160p.UHD.Blu-ray.Atmos.7.1.HEVC-DDR.mkv torrent

ETTV Recommended Cam
The Hunt 2020 HDCAM x264 AC3-ETRG torrent
The Burnt Orange Heresy 2020 720p HDCAM-C1NEM4 torrent

ETTV Recommended Foreign
Premam (2015) (1080p BluRay x265 HEVC 10bit EAC3 5.1 Malayalam Bandi) [QxR] torrent
The Ring Trilogia (2002-2017) 1080p H265 AC3 5.1 ITA.ENG sub ita.eng Sp33dy94 MIRCrew torrent
Lockup (2020) [TAMIL - 720p - WEB HDRip - x264 - AAC 2.1 - ESub - 2GB] - MAZE torrent
Enemy Gold (1993) UNRATED 720p BluRay x264 Eng Subs [Dual Audio] [Hindi DD 2.0 - English 2.0] Exclusive By -=!Dr.STAR!=- torrent
Haleema.2013.1080p.WEBRip.x264.HORiZON-ArtSubs torrent
Dosti (1964) Hindi 720p WEB-DL x264 AAC 2.0 {1337PRO} torrent

ETTV Recommended Misc
125 Tracks Rod Stewart ~Greatest Songs Playlist Spotify Mp3~ [320]  kbps Beats⭐ torrent
Khuda Haafiz (2020) Full Album Mp3-Flac-M4a [FPRG] torrent
The Doors - Live At The Bowl \'68 2012 Hi-Res FLAC (oan) torrent
VA - New Music Releases Week 33 of 2020 (Mp3 320kbps Songs) [PMEDIA] ⭐️ torrent
Timi Yuro - What's A Matter Baby - Plus Soul - [FLAC]-[TFM] torrent
[indie-pop, indie-rock] (2020) Liela Moss - Who the Power [FLAC] [DarkAngie] torrent


Download Torrent "Earthquake.Bird.2019.HDR.2160p.WEBRiP.DDP.5.1.HEVC-DDR.mkv"

IMDB Details
Description:

An enigmatic translator with a dark past is brought in for questioning after an ex-pat friend, who came between her and her photographer boyfriend, ends up missing and presumed dead.

Genre:

Crime, Drama, Mystery, Romance, Thriller

Download Torrent (Magnet)
Download Torrent (File)

Seeds: 127
Leechers: 47

Uploaded by:
DDR


Category:
Movies > UltraHD/4K


Details
Title:Earthquake.Bird.2019.HDR.2160p.WEBRiP.DDP.5.1.HEVC-DDR.mkv
Description:







General
Unique ID                                : 190284510956100315948078288398095882932 (0x8F2776B8FF745D79A55D7C8BAFBA1AB4)
Complete name                            : D:\00_demux\Earthquake.Bird.2019.HDR.2160p.WEBRiP.DDP.5.1.HEVC-DDR.mkv
Format                                   : Matroska
Format version                           : Version 4
File size                                : 7.91 GiB
Duration                                 : 1 h 46 min
Overall bit rate                         : 10.6 Mb/s
Encoded date                             : UTC 2020-07-26 19:01:23
Writing application                      : mkvmerge v47.0.0 ('Black Flag') 64-bit
Writing library                          : libebml v1.3.10 + libmatroska v1.5.2

Video
ID                                       : 1
Format                                   : HEVC
Format/Info                              : High Efficiency Video Coding
Commercial name                          : HDR10
Format profile                           : Main [email protected]@High
Codec ID                                 : V_MPEGH/ISO/HEVC
Duration                                 : 1 h 46 min
Bit rate                                 : 9 897 kb/s
Width                                    : 3 840 pixels
Height                                   : 1 600 pixels
Display aspect ratio                     : 2.40:1
Frame rate mode                          : Constant
Frame rate                               : 24.000 FPS
Color space                              : YUV
Chroma subsampling                       : 4:2:0
Bit depth                                : 10 bits
Bits/(Pixel*Frame)                       : 0.067
Stream size                              : 7.34 GiB (93%)
Language                                 : English
Default                                  : Yes
Forced                                   : No
Color range                              : Limited
Color primaries                          : BT.2020
Transfer characteristics                 : PQ
Matrix coefficients                      : BT.2020 non-constant
Mastering display color primaries        : Display P3
Mastering display luminance              : min: 0.0050 cd/m2, max: 4000 cd/m2
Maximum Content Light Level              : 5146 cd/m2
Maximum Frame-Average Light Level        : 190 cd/m2

Audio
ID                                       : 2
Format                                   : E-AC-3 JOC
Format/Info                              : Enhanced AC-3 with Joint Object Coding
Commercial name                          : Dolby Digital Plus with Dolby Atmos
Codec ID                                 : A_EAC3
Duration                                 : 1 h 46 min
Bit rate mode                            : Constant
Bit rate                                 : 768 kb/s
Channel(s)                               : 6 channels
Channel layout                           : L R C LFE Ls Rs
Sampling rate                            : 48.0 kHz
Frame rate                               : 31.250 FPS (1536 SPF)
Compression mode                         : Lossy
Delay relative to video                  : 8 ms
Stream size                              : 586 MiB (7%)
Language                                 : English
Service kind                             : Complete Main
Default                                  : Yes
Forced                                   : No
Complexity index                         : 16
Number of dynamic objects                : 15
Bed channel count                        : 1 channel
Bed channel configuration                : LFE




MikeKhan /Desitorrents.tv

Category:Movies > UltraHD/4K
Lang:English  English
Total Size:7.91 GB
Info Hash:248cb6a41274cc833115712ee759f076d0a46b64
Added By:DDR
Date Added:26-07-2020 21:39:51

  

Files

File List: 
 File Size
Earthquake.Bird.2019.HDR.2160p.WEBRiP.DDP.5.1.HEVC-DDR.mkv7.91 GB



Comments

There are currently no comments. Be the first one to write something !