Blindspot Stargirl Scoob 2020 aew Coma 2019 2160p Peninsula 2020 the tax collector Perry Mason S01E08 0 Big Brother S22E02 Greenleaf S05E08 DC week Mortal 2020 hindi Wentworth s08e03 The Rental 2020 Waiting for the Barbarians 2019 ufc ettv Homefront 2013 An American Pickle 2020 Hard Knocks S15E01 yts The Tax Collector 2020 P-Valley S01E05 yellowstone The Fugitive S01E01 wentworth the 100 Knives Out 2019 Below Deck Mediterranean S05E11 Paw Patrol s07e07 the alienist greenleaf ita Greyhound 2020 doom patrol hindi 2020 Americas Got Talent S15E11 Made in Italy 2020 Work It 2020 Siesta Key S03E21 ddr rq.mp4 Legacy of Lies 2020 perry mason etmovies The Old Guard 2020 Stargirl S01E13 Ava 2020 The Secret Garden 2020 Gunjan Saxena Black Water Abyss 2020 ethd wwe Yellowstone S03E08 american dad xxx etrg Doom Patrol s02e09 Deathstroke Knights and Dragons - The Movie 2020 Greenland 2020 Unhinged 2020 Deep Blue Sea 3 2020 evo The Outpost 2020 90 Day Fiance The Other Way s02e11 supernatural 
Warning! Use a VPN When Downloading Torrents!
Your IP Address is 18.233.111.242. Location United States
Your Internet Provider can see when you download torrents! Hide your IP Address with a VPN
ETTV warns: You should use VPN to hide your torrenting. HIDE ME NOW
ETTV Recommended TV Shows
Holby.City.S22E25.HDTV.x264-RiVER[ettv] torrent
Greenleaf.S05E08.720p.WEBRip.x264-OATH[ettv] torrent
Wentworth.S08E03.1080p.HEVC.x265.MeGusta.ETRG torrent
World.of.Dance.S04E11.WEB.h264-TRUMP[ettv] torrent

ETTV Recommended SD
Ballbuster.2020.HDRip.XviD.AC3-EVO[EtMovies] torrent
Witches in the Woods.2019.BDRip.XviD.AC3-EVO torrent
The.Driver.2019.BDRip.XviD.AC3-EVO torrent
Fight.Night.2020.BDRip.XviD.AC3-EVO torrent

ETTV Recommended HD
Uncle.Peckerhead.2020.1080p.WEBRip.X264.DD.5.1-EVO[EtHD] torrent
G-Loc.2020.1080p.WEBRip.X264.DD.5.1-EVO[EtHD] torrent
Ballbuster.2020.1080p.WEBRip.X264.DD.5.1-EVO[EtHD] torrent
The.King.of.Staten.Island.2020.1080p.WEBRip.X264-DEFLATE[EtHD] torrent

ETTV Recommended UHD
Star Wars Return of the Jedi 1983 2160p UHD-Film OTD83 v1.0 oohteedee torrent
The.Secret.Garden.2020.HDR.2160p.DDP.5.1.HEVC-DDR.mkv torrent
Ballon.2018.BluRay.2160p.HDR.Atmos.7.1.HEVC-DDR.mkv torrent
The.Good.the.Bad.and.the.Ugly.1966.EXTENDED.4K.HDR.2160p.WEBDL Ita Eng x265-NAHOM torrent

ETTV Recommended Cam
The Hunt 2020 HDCAM x264 AC3-ETRG torrent
The Burnt Orange Heresy 2020 720p HDCAM-C1NEM4 torrent

ETTV Recommended Foreign
The King's Guard (2003) 480p WEB-DL x264 Eng Subs [Dual Audio] [Hindi DD 2.0 - English 2.0] Exclusive By -=!Dr.STAR!=- torrent
The Babysitter (2017) 1080p NF WEB-DL [Hindi + English] x264 DD+5.1 ESubs 1.5GB - MOVCR torrent
Les.démons.AKA.The.Demons.2015.WEB-DL.720p.h264.AC3-DEEP torrent
Gunjan.Saxena.The.Kargil.Girl.2020.720p.NF.WEB-DL.HIN-MultiDDP5.1.x264-Telly torrent
Ladyhawke (1985) AC3 5.1 ITA.ENG 1080p H265 sub ita.eng Sp33dy94 MIRCrew torrent
[18+] Angels Fallen (2020) x264 720p UNRATED WEB-DL {Dual Audio} [Hindi DD 2.0 + English 2.0] Exclusive By DREDD torrent

ETTV Recommended Misc
Headdock - Techno Syndrome 09-08-2020 [2CD] [2Bonus CD] {1337x} torrent
Queen  - Innuendo - 1991 - MP3 - 320KBPS - G&U torrent
Deep Purple - Whoosh! (2020) [Vinyl-Rip] 24-96  torrent
[alt-country, indie-rock] (2020) The Jayhawks - XOXO [Limited Edition] [FLAC] [DarkAngie] torrent
150 Tracks 50's Rock 'N' Roll ~Songs  Playlist Spotify Mp3~ [320]  kbps Beats⭐ torrent
VA - Summertime Songs Essentials (2020) Mp3 320kbps [PMEDIA] ⭐️ torrent


Download Torrent "Black.Is.King.2020.HDRip.XviD.AC3.LLG"

IMDB Details
Description:

Visual album from Beyoncé inspired by 'The Lion King'.

Genre:

Music

Download Torrent (Magnet)
Download Torrent (File)

Seeds: 158
Leechers: 93

Uploaded by:
LifeLongg


Category:
Movies > XviD


Details
Title:Black.Is.King.2020.HDRip.XviD.AC3.LLG
Description:



******************************Thumbnail:**********************



******************************Screenshots:********************

screenshot 1

screenshot 2

screenshot 3

screenshot 4

screenshot 5

screenshot 6

screenshot 7

screenshot 8

screenshot 9

screenshot 0


******************************************************

Black.Is.King.2020.HDRip.XviD.AC3.LLG.mp4
Format                                   : MPEG-4
Format profile                           : Base Media
Codec ID                                 : isom (isom/iso2/avc1/mp41)
File size                                : 970 MiB
Duration                                 : 1 h 25 min
Overall bit rate mode                    : Variable
Overall bit rate                         : 1 580 kb/s
Writing application                      : Lavf57.83.100

Video
ID                                       : 1
Format                                   : AVC
Format/Info                              : Advanced Video Codec
Format profile                           : [email protected]
Format settings                          : CABAC / 1 Ref Frames
Format settings, CABAC                   : Yes
Format settings, Reference frames        : 1 frame
Codec ID                                 : avc1
Codec ID/Info                            : Advanced Video Coding
Duration                                 : 1 h 25 min
Bit rate mode                            : Variable
Bit rate                                 : 1 193 kb/s
Maximum bit rate                         : 3 600 kb/s
Width                                    : 720 pixels
Height                                   : 406 pixels
Display aspect ratio                     : 16:9
Frame rate mode                          : Constant
Frame rate                               : 23.976 (23976/1000) FPS
Color space                              : YUV
Chroma subsampling                       : 4:2:0
Bit depth                                : 8 bits
Scan type                                : Progressive
Bits/(Pixel*Frame)                       : 0.170
Stream size                              : 732 MiB (75%)
Codec configuration box                  : avcC

Audio
ID                                       : 2
Format                                   : AC-3
Format/Info                              : Audio Coding 3
Commercial name                          : Dolby Digital
Codec ID                                 : ac-3
Duration                                 : 1 h 25 min
Bit rate mode                            : Constant
Bit rate                                 : 384 kb/s
Channel(s)                               : 6 channels
Channel layout                           : L R C LFE Ls Rs
Sampling rate                            : 48.0 kHz
Frame rate                               : 31.250 FPS (1536 SPF)
Compression mode                         : Lossy
Stream size                              : 236 MiB (24%)
Title                                    : Surround
Language                                 : English
Service kind                             : Complete Main
Default                                  : Yes
Alternate group                          : 1






******************************************************** 




Category:Movies > XviD
Lang:English  English
Total Size:1,013 MB
Info Hash:912050a1f83b88c8d5518a325f78f06418eee24d
Added By:LifeLongg
Date Added:01-08-2020 13:02:38

Files

File List: 
 File Size
Black.Is.King.2020.HDRip.XviD.AC3.LLG.mp4970 MB
SAMPLE.ts42 MB



Comments

There are currently no comments. Be the first one to write something !