Blindspot Sputnik 2020 The Rental 2020 Big Brother S22E03 agents of Made in Italy 2020 The Outpost 2020 Big Brother S22E04 HINDI khuda hafiz Abhay  The Secret Garden 2020 the fugitive Star Trek Lower Decks s01e02 Greyhound 2020 ted lasso Marvels Agents of S.H.I.E.L.D. S07E12 Khuda haafiz Sputnik Deathstroke Knights and Dragons - The Movie 2020 the 100 s07e11 marvel week Marvels.Agents.of.S.H.I.E.L.D etmovies ethd ddr supernatural  The Tax Collector 2020 Project Power 2020 greenland 2020 Tesla 2020 Yellowstone S03E08 etrg The Old Guard 2020 evo yts wwe Waiting for the Barbarians 2020 wentworth Hindi 2020 Black Water Abyss 2020 The Fugitive S01E01 Agents of S.H.I.E.L.D. peninsula 2020 Evo Marvels Agents of S.H.I.E.L.D. S07E13 An American Pickle 2020 greys anatomy abhay 2 Deep Blue Sea 3 2020 rq.mp4 star trek project power stargirl 2160p Knives Out 2019 Marvels Agents Unhinged 2020 yellowstone big bang theory español tesla The Real Housewives of Beverly Hills S10E14 THE 100 ettv agents xxx arrow español Double Shot at Love S02E10 Marvels Agents of S H I E L D s07e13 doom patrol Alone S07E10 
Warning! Use a VPN When Downloading Torrents!
Your IP Address is 3.219.167.194. Location United States
Your Internet Provider can see when you download torrents! Hide your IP Address with a VPN
ETTV warns: You should use VPN to hide your torrenting. HIDE ME NOW
ETTV Recommended TV Shows
The Big Bang Theory (2007) Season 6 S06 (1080p BluRay x265 HEVC 10bit AAC 5.1 Vyndros) torrent
The Lone Ranger 1949 Season 1 Complete DVDRip x264 [i c] torrent
Very.Scary.People.S02E08.The.Co-Ed.Killer.Pt2.1080p.HEVC.x265.MeGusta.ETRG torrent
Medici (2016) Season 1-3 S01-S03 (1080p BluRay x265 HEVC 10bit AAC 5.1 Silence) [QxR] torrent
One Championship No Surrender II 720p WEBRip h264-TJ [TJET] torrent
The New Legends of Monkey Season 2 Complete 720p NF WEBRip x264 [i c] torrent
Sheena, Queen Of The Jungle 2000 Season 1 Complete DVDRip x264 [i c] torrent
Spenser for Hire 1985 Season 1 Complete WEB x264 [i c] torrent

ETTV Recommended SD
The.Bay.of.Silence.2020.HDRip.XviD.AC3-EVO[EtMovies] torrent
Before.the.Fire.2020.HDRip.XviD.AC3-EVO[EtMovies] torrent
The.Silencing.2020.V2.HDRip.XviD.AC3-EVO[EtMovies] torrent
Project.Power.2020.HDRip.XviD.AC3-EVO[EtMovies] torrent

ETTV Recommended HD
Cut.and.Chop.2020.1080p.WEB-DL.DD5.1.H.264-EVO[EtHD] torrent
Before.The.Fire.2020.1080p.WEB-DL.DD5.1.H264-CMRG[EtHD] torrent
The.Silencing.2020.1080p.WEB-DL.DD5.1.H.264-EVO[EtHD] torrent
The.Bay.of.Silence.2020.1080p.WEB-DL.H264.AC3-EVO[EtHD] torrent

ETTV Recommended UHD
The.Secret.Garden.2020.HDR.2160p.DDP.5.1.HEVC-DDR.mkv torrent
Ballon.2018.BluRay.2160p.HDR.Atmos.7.1.HEVC-DDR.mkv torrent
The.Good.the.Bad.and.the.Ugly.1966.EXTENDED.4K.HDR.2160p.WEBDL Ita Eng x265-NAHOM torrent
Roger.Waters.Us.Them.2019.2160p.WEB-DL.x265-ROCCaT.Morpheus torrent

ETTV Recommended Cam
The Hunt 2020 HDCAM x264 AC3-ETRG torrent
The Burnt Orange Heresy 2020 720p HDCAM-C1NEM4 torrent

ETTV Recommended Foreign
Boogeyman 2 (2007) x265 720p HEVC 10Bit BluRay {Dual Audio} [Hindi ORG DD 2.0 + ENG 2.0] Exclusive By DREDD torrent
The Hidden Strike (2020) Hindi 1080p SM WEB-DL x264 AAC 2GB - MOVCR torrent
Project.Power.2020.1080p.NF.WEB-DL.HIN-Multi.DDP5.1.Atmos.x264-Telly torrent
Fearless.2020.1080p.NF.WEB-DL.HIn-Multi.DDP5.1.x264-Telly torrent
303 (2018) BluRay 720p x264 1GB-XpoZ torrent
Time Trap (2017) AC3 5.1 ITA.ENG 1080p H265 sub ita.eng Sp33dy94 MIRCrew torrent

ETTV Recommended Misc
Queen  - Innuendo - 1991 - MP3 - 320KBPS - G&U torrent
Biffy Clyro - A Celebration Of Endings (2020) [320 KBPS]  torrent
125 Tracks Rod Stewart ~Greatest Songs Playlist Spotify Mp3~ [320]  kbps Beats⭐ torrent
Khuda Haafiz (2020) Full Album Mp3-Flac-M4a [FPRG] torrent
The Official UK Top 40 Singles Chart (14-Aug-2020) Mp3 320kbps Songs [PMEDIA] ⭐️ torrent
[electronic] (2005) Brian Eno - Another Day On Earth [FLAC] [DarkAngie] torrent


Download Torrent "Mortal.2020.HDRip.XviD.AC3.LLG"

IMDB Details
Description:

Fantasy adventure origin story about a young man discovering he has God-like powers based on ancient Norwegian mythology.

Genre:

Action, Adventure, Fantasy

Download Torrent (Magnet)
Download Torrent (File)

Seeds: 185
Leechers: 108

Uploaded by:
LifeLongg


Category:
Movies > XviD


Details
Title:Mortal.2020.HDRip.XviD.AC3.LLG
Description:



******************************Thumbnail:**********************



******************************Screenshots:********************

screenshot 1

screenshot 2

screenshot 3

screenshot 4

screenshot 5

screenshot 6

screenshot 7

screenshot 8

screenshot 9

screenshot 0


******************************************************

Mortal.2020.HDRip.XviD.AC3.LLG.mp4
Format                                   : MPEG-4
Format profile                           : Base Media
Codec ID                                 : isom (isom/iso2/avc1/mp41)
File size                                : 1.11 GiB
Duration                                 : 1 h 39 min
Overall bit rate mode                    : Variable
Overall bit rate                         : 1 591 kb/s
Writing application                      : Lavf57.83.100

Video
ID                                       : 1
Format                                   : AVC
Format/Info                              : Advanced Video Codec
Format profile                           : [email protected]
Format settings                          : CABAC / 1 Ref Frames
Format settings, CABAC                   : Yes
Format settings, Reference frames        : 1 frame
Codec ID                                 : avc1
Codec ID/Info                            : Advanced Video Coding
Duration                                 : 1 h 39 min
Bit rate mode                            : Variable
Bit rate                                 : 1 204 kb/s
Maximum bit rate                         : 3 600 kb/s
Width                                    : 720 pixels
Height                                   : 304 pixels
Display aspect ratio                     : 2.40:1
Original display aspect ratio            : 2.40:1
Frame rate mode                          : Constant
Frame rate                               : 25.000 FPS
Color space                              : YUV
Chroma subsampling                       : 4:2:0
Bit depth                                : 8 bits
Scan type                                : Progressive
Bits/(Pixel*Frame)                       : 0.220
Stream size                              : 860 MiB (76%)
Language                                 : English
Codec configuration box                  : avcC

Audio
ID                                       : 2
Format                                   : AC-3
Format/Info                              : Audio Coding 3
Commercial name                          : Dolby Digital
Codec ID                                 : ac-3
Duration                                 : 1 h 39 min
Bit rate mode                            : Constant
Bit rate                                 : 384 kb/s
Channel(s)                               : 6 channels
Channel layout                           : L R C LFE Ls Rs
Sampling rate                            : 48.0 kHz
Frame rate                               : 31.250 FPS (1536 SPF)
Compression mode                         : Lossy
Stream size                              : 274 MiB (24%)
Service kind                             : Complete Main
Default                                  : Yes
Alternate group                          : 1




******************************************************** 




Category:Movies > XviD
Lang:English  English
Total Size:1.11 GB
Info Hash:5a4135b9750faba359b0cbaad0ed9c3682a41464
Added By:LifeLongg
Date Added:01-08-2020 16:46:27

Files

File List: 
 File Size
Mortal.2020.HDRip.XviD.AC3.LLG.mp41.11 GB
SAMPLE.ts4 MB



Comments

There are currently no comments. Be the first one to write something !